¿Dónde estamos hoy?Conferencia Peter Joseph (Mega)

¿Dónde estamos hoy? Conferencia Peter Joseph, ingles con subtítulos español (Mega)


Conferencia de Peter Joseph brindada el 25 de Julio de 2009 en Londres, Inglaterra.

El título es ¿Donde estamos hoy? En una presentación de poco más de una hora de duración se presentan aquellas características críticas de la cultura actual que necesitan ser tomadas en cuenta para incentivar y activar la necesidad de un cambio genuino en nuestras prácticas sociales y en la manera en que vemos e interpretamos nuestra vida.



General
Complete name: ¿Dónde estamos hoy_ de Peter Joseph.mp4
Format                                     : MPEG-4
Format profile                           : Base Media
Codec ID                                  : isom
File size                                    : 209 MiB
Duration                                   : 1h 8mn
Overall bit rate mode                 : Variable
Overall bit rate                          : 424 Kbps
Encoded date                            : UTC 2009-09-25 05:18:29
Tagged date                              : UTC 2009-09-26 05:18:43

Video
ID                                            : 1
Format                                     : AVC
Format/Info                              : Advanced Video Codec
Format profile                           : [email protected]
Format settings, CABAC             : Yes
Format settings, ReFrames         : 4 frames
Codec ID                                   : avc1
Codec ID/Info                            : Advanced Video Coding
Duration                                    : 1h 8mn
Bit rate                                     : 312 Kbps
Nominal bit rate                         : 350 Kbps
Maximum bit rate                       : 2 142 Kbps
Width                                        : 640 pixels
Height                                       : 480 pixels
Display aspect ratio                    : 4:3
Frame rate mode                        : Constant
Frame rate                                : 24.000 fps
Color space                               : YUV
Chroma subsampling                  : 4:2:0
Bit depth                                   : 8 bits
Scan type                                  : Progressive
Bits/(Pixel*Frame)                      : 0.042
Stream size                                : 154 MiB (74%)

Audio
ID                                              : 2
Format                                       : AAC
Format/Info                                : Advanced Audio Codec
Format profile                             : LC
Codec ID                                    : 40
Duration                                     : 1h 8mn
Bit rate mode                              : Variable
Bit rate                                      : 109 Kbps
Maximum bit rate                       : 146 Kbps
Channel count                             : 2 channels
Channel positions                        : Front: L R
Sampling rate                             : 44.1 KHz
Compression mode                      : Lossy
Stream size                                 : 54.0 MiB (26%)










Parte I.

https://mega.co.nz/#!R9wDWAza!Gq0cwG2zsZ8fTAIWW-OMJmWoHJV6XdXYc9od7F923Qs
                         
Parte II.
https://mega.co.nz/#!shoDgI5Y!D_fTcm0HvMtWFXGRrnQlRmJg-ZALFC8aALHBMvWDFrk
¿Dónde estamos hoy?Conferencia Peter Joseph (Mega)
25 Puntos Score: 8.3/10
Visitas: 1047 Favoritos: 4
Ver los usuarios que votaron...
Más del Autor...
No se encontraron más posts
10 Comentarios ¿Dónde estamos hoy?Conferencia Peter Joseph (Mega)
Garcias por tu contribucion al apredizaje,si acaso tuvieras mas docus,seria fantastico.
Me da la impresion que es de el estilo de Zeitgeist, muchas gracias  
Cita Akeelah: Mostrar

De hecho es el director de Zeitgeist estimado
bueno a bajarlo para ver que tal es su contenido bro se agradece  
A ver que onda...Muchas gracias por compartir!!!
esta bueno estaria que alguien le aga caso nomas
Muy interesante el documental, muchas gracias por compartir!
Para dejar un comentario Registrate! o.. eres ya usuario? Accede!