Gunner120
"No subo más nada,salvo por supuesto,puntuar :)"

Slash Made in Stoke 720p



Video
ID                             : 1
Format                         : AVC
Format/Info                    : Advanced Video Codec
Format profile                 : [email protected]
Format settings, CABAC         : Yes
Format settings, ReFrames      : 4 frames
Codec ID                       : V_MPEG4/ISO/AVC
Duration                       : 2h 5mn
Bit rate                       : 3 499 Kbps
Width                          : 1 280 pixels
Height                         : 720 pixels
Display aspect ratio           : 16:9
Frame rate mode                : Constant
Frame rate                     : 23.976 fps
Color space                    : YUV
Chroma subsampling             : 4:2:0
Bit depth                      : 8 bits
Scan type                      : Progressive
Bits/(Pixel*Frame)             : 0.158
Stream size                    : 3.00 GiB (87%)
Writing library                : x264 core 133 r2334 a3ac64b
Default                        : Yes
Forced                         : No

Audio
ID                             : 2
Format                         : AC-3
Format/Info                    : Audio Coding 3
Mode extension                 : CM (complete main)
Format settings, Endianness    : Big
Codec ID                       : A_AC3
Duration                       : 2h 5mn
Bit rate mode                  : Constant
Bit rate                       : 448 Kbps
Channel count                  : 6 channels
Channel positions              : Front: L C R, Side: L R, LFE
Sampling rate                  : 48.0 KHz
Bit depth                      : 16 bits
Compression mode               : Lossy
Stream size                    : 402 MiB (11%)
Default                        : Yes
Forced                         : No

Peso de los Rar: 3.46gb








Slash Made in Stoke 720p
30 Puntos Score: 7.5/10
Visitas: 1480 Favoritos: 2
Ver los usuarios que votaron...
11 Comentarios Slash Made in Stoke 720p
@matt_1210 Gracias por pasar!  
Genial :3

Gracias XD
@juaneloman gracias por comentar  
Podrias pasarme los likns? no cargan en jdownloader, por favor.
Solucionado, muchas gracias por el aporte.
Por piedad alguien podr?
Mil gracias Gunner120, te quise contestar por privado pero no puedo porque soy "starter" (??
Para dejar un comentario Registrate! o.. eres ya usuario? Accede!