Quicksilver (El placer de ganar)Dvdrip latino Xvid

Quicksilver
Año: 1986
País: EE.UU.
Dirección: Thomas Michael Donnelly
Intérpretes: Kevin Bacon, Jami Gertz, Paul Rodriguez, Rudy Ramos, Andrew Smith, Gerald S. O'Loughlin, Laurence Fishburne, Louie Anderson
Guión: Thomas Michael Donnelly
Música: Tony Bank
Fotografía: Thomas Del Ruth


Jack trabajaba en el mercado bursátil, pero tras un error descomunal tiene que emprender un nuevo rumbo en su vida. Lo que supone trabajar en una empresa de mensajería que utiliza bicicletas para evitar los habituales atascos que sufre San Francisco. Allí Jack se enamorará y hará nuevas amistades, y hasta puede que sus conocimientos profesionales de antaño le sean de alguna utilidad.


Capturas 




Format                                   : AVI
Format/Info                              : Audio Video Interleave
File size                                : 1.37 GiB
Duration                                 : 1h 46mn
Overall bit rate                         : 1 841 Kbps
Writing application                      : VirtualDubMod 1.5.10.2 (build 2540/release)
Writing library                          : VirtualDubMod build 2540/release

Video
ID                                       : 0
Format                                   : MPEG-4 Visual
Format profile                           : Advanced [email protected]
Format settings, BVOP                    : No
Format settings, QPel                    : No
Format settings, GMC                     : No warppoints
Format settings, Matrix                  : Custom
Codec ID                                 : XVID
Codec ID/Hint                            : XviD
Duration                                 : 1h 46mn
Bit rate                                 : 1 639 Kbps
Width                                    : 720 pixels
Height                                   : 400 pixels
Display aspect ratio                     : 16:9
Frame rate                               : 23.976 fps
Color space                              : YUV
Chroma subsampling                       : 4:2:0
Bit depth                                : 8 bits
Scan type                                : Progressive
Compression mode                         : Lossy
Bits/(Pixel*Frame)                       : 0.237
Stream size                              : 1.22 GiB (89%)
Writing library                          : XviD 64

Audio
ID                                       : 1
Format                                   : AC-3
Format/Info                              : Audio Coding 3
Mode extension                           : CM (complete main)
Format settings, Endianness              : Big
Codec ID                                 : 2000
Duration                                 : 1h 46mn
Bit rate mode                            : Constant
Bit rate                                 : 192 Kbps
Channel count                            : 2 channels
Channel positions                        : Front: L R
Sampling rate                            : 48.0 KHz
Bit depth                                : 16 bits
Compression mode                         : Lossy
Stream size                              : 146 MiB (10%)
Alignment                                : Split accross interleaves
Interleave, duration                     : 42 ms (1.00 video frame)
Interleave, preload duration             : 500 ms



Descarga por mega

Quicksilver (El placer de ganar)Dvdrip latino Xvid
0 Puntos Score: 0/10
Visitas: 11200 Favoritos: 2
4 Comentarios Quicksilver (El placer de ganar)Dvdrip latino Xvid
28 LINKS !!!!
aun para links de MEGA es una jalada !!!!
@patdornier Mi internet se corta a cada rato por eso son muchos links, si lo subo en uno nunca acabaria con el internet de porqueria que tengo,
bueno ... asi se entiende , creo que esto te irrita mas a ti ... pero muchas gracias por el aporte , noes comun esta peli en latino y ya la baje  
Para dejar un comentario Registrate! o.. eres ya usuario? Accede!