Gunner120
"No subo más nada,salvo por supuesto,puntuar :)"

Titanes Del Pacifico Latino 720p









Video
ID                                       : 1
Format                                   : AVC
Format/Info                              : Advanced Video Codec
Format profile                           : [email protected]
Format settings, CABAC                   : No
Format settings, ReFrames                : 2 frames
Codec ID                                 : V_MPEG4/ISO/AVC
Duration                                 : 2h 11mn
Bit rate                                 : 4 028 Kbps
Width                                    : 1 280 pixels
Height                                   : 718 pixels
Display aspect ratio                     : 16:9
Frame rate mode                          : Constant
Frame rate                               : 23.976 fps
Color space                              : YUV
Chroma subsampling                       : 4:2:0
Bit depth                                : 8 bits
Scan type                                : Progressive
Bits/(Pixel*Frame)                       : 0.183
Stream size                              : 3.69 GiB (94%)
Title                                    : pelismkv
Language                                 : English
Default                                  : No
Forced                                   : No
Color primaries                          : BT.709
Transfer characteristics                 : BT.709
Matrix coefficients                      : BT.709

Audio
ID                                       : 2
Format                                   : AC-3
Format/Info                              : Audio Coding 3
Mode extension                           : CM (complete main)
Format settings, Endianness              : Big
Codec ID                                 : A_AC3
Duration                                 : 2h 11mn
Bit rate mode                            : Constant
Bit rate                                 : 192 Kbps
Channel count                            : 2 channels
Channel positions                        : Front: L R
Sampling rate                            : 48.0 KHz
Bit depth                                : 16 bits
Compression mode                         : Lossy
Stream size                              : 180 MiB (4%)
Title                                    : Latino AC3  2.0
Language                                 : Spanish
Default                                  : No
Forced                                   : No


Peso de los Rar: 3.95gb


Titanes Del Pacifico Latino 720p
35 Puntos Score: 8.8/10
Visitas: 8306 Favoritos: 1
Ver los usuarios que votaron...
12 Comentarios Titanes Del Pacifico Latino 720p
mmmm cuando hablan  en chino o japones hay la traduccion en subtitulos?
@davenapalm Si subtitulos forzados en ingles
Muchas gracias, un muy buen aporte!
se ve muy buena descargando gracias  
No me sale el link :/
Cita rubeencast: Mostrar
Lo acabo de verificar y estan disponibles,sera un problema de tu JD o alguna actualizacion que no tienes
gracias q buena esta ya la vi  
esta buena pero no esta 5.1   buscare otra pero graxx x compartir  
Para dejar un comentario Registrate! o.. eres ya usuario? Accede!