Bram Stoker's Dracula Latino Bu




Drácula de Bram Stoker es un americano 1992 de terror erótico drama películadirigida y producida por Francis Ford Coppola , basada en la novela Drácula deBram Stoker . Está protagonizada por Gary Oldman como el Conde Drácula , Winona Ryder como Mina Harker , Anthony Hopkins como profesor Abraham Van Helsing , y Keanu Reeves como Jonathan Harker .


Drácula de Bram Stoker fue recibido por una recepción crítica positiva en general y fue un éxito de taquilla, aunque el rendimiento de Reeves fue objeto de burlas.La banda sonora fue compuesta por Wojciech Kilar y ofreció " Love Song para un vampiro " por Annie Lennox , que se convirtió en un éxito internacional, ya que el tema de los créditos de cierre.











Format/Info                      : Audio Video Interleave

File size                        : 1 015 MiB

Duration                         : 2h 7mn

Overall bit rate                 : 1 112 Kbps

Writing application              : MEncoder SVN-r30881(20100311-gcc4.3.3)

Writing library                  : MPlayer


Video

ID                               : 0

Format                           : MPEG-4 Visual

Format profile                   : Advanced [email protected]

Format settings, BVOP            : 2

Format settings, QPel            : No

Format settings, GMC             : No warppoints

Format settings, Matrix          : Default (H.263)

Codec ID                         : XVID

Codec ID/Hint                    : XviD

Duration                         : 2h 7mn

Bit rate                         : 972 Kbps

Width                            : 720 pixels

Height                           : 480 pixels

Display aspect ratio             : 3:2

Frame rate                       : 24.000 fps

Standard                         : NTSC

Color space                      : YUV

Chroma subsampling               : 4:2:0

Bit depth                        : 8 bits

Scan type                        : Progressive

Compression mode                 : Lossy

Bits/(Pixel*Frame)               : 0.117

Stream size                      : 887 MiB (87%)

Writing library                  : XviD 1.2.1


Audio

ID                               : 1

Format                           : MPEG Audio

Format version                   : Version 1

Format profile                   : Layer 3

Mode                             : Joint stereo

Mode extension                   : MS Stereo

Codec ID                         : 55

Codec ID/Hint                    : MP3

Duration                         : 2h 7mn

Bit rate mode                    : Constant

Bit rate                         : 128 Kbps

Channel(s)                       : 2 channels

Sampling rate                    : 44.1 KHz

Compression mode                 : Lossy

Delay relative to video          : 42ms

Stream size                      : 117 MiB (12%)

Alignment                        : Aligned on interleaves

Interleave, duration             : 26 ms (0.63 video frame)

Interleave, preload duration     : 522 ms












Hola



Te invito a pasar a mi humilde y olvidado post de esta fantastica serie Metal Evolution Series sobre origen del metal y sus distintas ramificaciones  SERIE COMPLETA TOTALMENTE SUBTITULADA EN EL MEJOR FORMATO MKV












Bram Stoker's Dracula Latino Bu
20 Puntos Score: 10/10
Visitas: 3259 Favoritos: 1
Ver los usuarios que votaron...
6 Comentarios Bram Stoker's Dracula Latino Bu
Muchas gracias  
Buenaza esta pelicula con gary oldman  
compadre, el audio esta en espa?
Para dejar un comentario Registrate! o.. eres ya usuario? Accede!