John Carpenter Christine Dvdrip Latino Bu





Arnie Cunningham es un chico no muy popular, usa unas horribles gafas negras, está lleno de complejos y las chicas no le prestan atención. Al volver un día a casa junto a su amigo Dennis, Arnie se enamora de un coche destartalado que se encuentra en venta: Christine. Pese a las advertencias de su amigo, Arnie paga por el coche 250 dólares con el propósito de repararlo.


A partir de ese momento Arnie se obsesiona por Christine. Pasa la mayor parte del tiempo arreglándolo, aislándose de sus amigos y su familia. Una vez que el coche está a punto, Arnie se convierte en una persona arrogante y egoísta. Manipulado por Christine hará todo lo posible para evitar que nadie se entrometa entre ambos.












Format                                   : AVI
Format/Info                              : Audio Video Interleave
Format profile                           : OpenDML
File size                                : 1.03 GiB
Duration                                 : 1h 49mn
Overall bit rate                         : 1 340 Kbps
Writing application                      : Lavf51.12.1

Video
ID                                       : 0
Format                                   : AVC
Format/Info                              : Advanced Video Codec
Format profile                           : [email protected]
Format settings, CABAC                   : No
Format settings, ReFrames                : 2 frames
Format settings, GOP                     : M=1, N=12
Codec ID                                 : H264
Duration                                 : 1h 49mn
Bit rate                                 : 1 196 Kbps
Width                                    : 852 pixels
Original width                           : 848 pixels
Height                                   : 480 pixels
Display aspect ratio                     : 4:3
Frame rate                               : 23.976 fps
Standard                                 : NTSC
Color space                              : YUV
Chroma subsampling                       : 4:2:0
Bit depth                                : 8 bits
Scan type                                : Progressive
Bits/(Pixel*Frame)                       : 0.122
Stream size                              : 940 MiB (89%)
Color primaries                          : BT.601 NTSC
Transfer characteristics                 : BT.601
Matrix coefficients                      : BT.601

Audio
ID                                       : 1
Format                                   : MPEG Audio
Format version                           : Version 1
Format profile                           : Layer 3
Mode                                     : Joint stereo
Mode extension                           : MS Stereo
Codec ID                                 : 55
Codec ID/Hint                            : MP3
Duration                                 : 1h 49mn
Bit rate mode                            : Constant
Bit rate                                 : 128 Kbps
Channel count                            : 2 channels
Sampling rate                            : 44.1 KHz
Compression mode                         : Lossy
Stream size                              : 101 MiB (10%)
Alignment                                : Aligned on interleaves
Interleave, duration                     : 26 ms (0.63 video frame)
Interleave, preload duration             : 26 ms
Writing library                          : LAME3.97



























Hola
http://www.identi.li/index.php?topic=263840

Te invito a pasar a mi humilde y olvidado post de esta fantastica serie Metal Evolution Series sobre origen del metal y sus distintas ramificaciones  SERIE COMPLETA TOTALMENTE SUBTITULADA EN EL MEJOR FORMATO MKV










 
John Carpenter Christine Dvdrip Latino Bu
20 Puntos Score: 10/10
Visitas: 32978 Favoritos: 2
Ver los usuarios que votaron...
6 Comentarios John Carpenter Christine Dvdrip Latino Bu
bro si fueras tan amable  a pl lo pudieras subir ..gracias.....
@SirArcano
Christine.part01.rar 876 KB/s - 8,1 MB de 100 MB, 1 minutos restantes
http://192.96.205.176:182/d/npaqc4nzlgcwr6kdcnr7nuytxzjx5cx3rcw7ezfqkz4wdggxouoej23j/Christine.part01.rar
PausaCancelar
@SirArcano
Cita SirArcano: Mostrar
baj perfecto el Servidor no tengo cuenta en  Pl disculpa
Muchas Gracias por subirla en Audio Latino.      
Ya no sirven los links, puedes arreglarlos. :9
@SPLICING quizas despues la resuba
Para dejar un comentario Registrate! o.. eres ya usuario? Accede!