The Walking Dead 4x08 Sub final de Temporada








 Los personajes que aparecerán en esta temporada serán los personajes que sobrevivieron en la temporada anterior, y que fueron vistos en el trailer oficial de esta temporada.12 



Algunos de los actores que trabajaron en temporadas anteriores como recurrentes fueron promovidos a miembros del elenco principal de la serie: Melissa McBride que fue recurrente desde la primera temporada ahora es una protagonista, Emily Kinney y Scott Wilson de la segunda temporada también fueron promovidos de roles, y los actores de la temporada 3; Chad L. Coleman y Sonequa Martin-Green se integraron al elenco principal.13 El único nuevo reclutado en el elenco principal para la cuarta temporada fue Lawrence Gillard Jr. 

Principal 

Andrew Lincoln como Rick Grimes 

Norman Reedus como Daryl Dixon 

Steven Yeun como Glenn 

Lauren Cohan como Maggie Greene 

Chandler Riggs como Carl Grimes 

Danai Gurira como Michonne 

Melissa McBride como Carol Peletier 

Scott Wilson como Hershel Greene 

Emily Kinney como Beth Greene 

Chad Coleman como Tyreese 

Sonequa Martin-Green como Sasha 

David Morrissey como El Gobernador14 

Lawrence Gilliard Jr como Bob Stookey









Fecha de Estreno: 13/10/2013



Genero: Terror, Drama



Capitulos: 4x08-


Idioma: Ingles



Subtitulos: pegados al video



Calidad: HDTV




Format                                   : AVI

Format/Info                              : Audio Video Interleave

File size                                : 602 MiB

Duration                                 : 43mn 15s

Overall bit rate                         : 1 945 Kbps

Writing application                      : Lavf51.12.1


Video

ID                                       : 0

Format                                   : AVC

Format/Info                              : Advanced Video Codec

Format profile                           : [email protected]

Format settings, CABAC                   : No

Format settings, ReFrames                : 2 frames

Format settings, GOP                     : M=1, N=12

Codec ID                                 : H264

Duration                                 : 43mn 14s

Bit rate                                 : 1 805 Kbps

Width                                    : 720 pixels

Height                                   : 404 pixels

Display aspect ratio                     : 4:3

Frame rate                               : 23.976 fps

Standard                                 : NTSC

Color space                              : YUV

Chroma subsampling                       : 4:2:0

Bit depth                                : 8 bits

Scan type                                : Progressive

Bits/(Pixel*Frame)                       : 0.259

Stream size                              : 558 MiB (93%)

Color primaries                          : BT.601 NTSC

Transfer characteristics                 : BT.601

Matrix coefficients                      : BT.601


Audio

ID                                       : 1

Format                                   : MPEG Audio

Format version                           : Version 1

Format profile                           : Layer 3

Mode                                     : Joint stereo

Mode extension                           : MS Stereo

Codec ID                                 : 55

Codec ID/Hint                            : MP3

Duration                                 : 43mn 15s

Bit rate mode                            : Constant

Bit rate                                 : 128 Kbps

Channel count                            : 2 channels

Sampling rate                            : 44.1 KHz

Compression mode                         : Lossy

Stream size                              : 39.6 MiB (7%)

Alignment                                : Aligned on interleaves

Interleave, duration                     : 26 ms (0.63 video frame)

Writing library                          : LAME3.97















4x08.avi
















Hola
http://www.identi.li/index.php?topic=263840

Te invito a pasar a mi humilde y olvidado post de esta fantastica serie Metal Evolution Series sobre origen del metal y sus distintas ramificaciones  SERIE COMPLETA TOTALMENTE SUBTITULADA EN EL MEJOR FORMATO MKV










The Walking Dead 4x08 Sub final de Temporada
10 Puntos Score: 10/10
Visitas: 1258 Favoritos: 0
Ver los usuarios que votaron...
4 Comentarios The Walking Dead 4x08 Sub final de Temporada
No es el final de la temporada, es el fin de la primera MITAD la 4 Temporada  
Cuando sigue la otra mitad?  
el 15  de febrero sale de nuevo
Gracias   saludos  
Para dejar un comentario Registrate! o.. eres ya usuario? Accede!