Oops.. Este post tiene los enlaces eliminados!

Identi revisa las denuncias de los usuarios en busca de enlaces eliminados que no dejan descargar los archivos, este mensaje te informa que este post que estas viendo tiene los enlaces eliminados.

Usa el Buscador

Por favor, te recomendamos que uses el buscador para encontrar más alternativas.

Megadeth Behind the Music Rip Subtitulado (Bu)

  • Categoría: Reciclaje
  • Publicado hace más de 2 años








Format : MPEG-4


Format profile : Base Media


Codec ID : isom


File size : 527 MiB


Duration : 1h 16mn


Overall bit rate mode : Variable


Overall bit rate : 962 Kbps



Video


ID : 1


Format : AVC


Format/Info : Advanced Video Codec


Format profile : [email protected]


Format settings, CABAC : No


Format settings, ReFrames : 1 frame


Codec ID : avc1


Codec ID/Info : Advanced Video Coding


Duration : 1h 16mn


Bit rate : 768 Kbps


Maximum bit rate : 5 409 Kbps


Width : 720 pixels


Height : 540 pixels


Display aspect ratio : 4:3


Frame rate mode : Constant


Frame rate : 24.000 fps


Color space : YUV


Chroma subsampling : 4:2:0


Bit depth : 8 bits


Scan type : Progressive


Bits/(Pixel*Frame) : 0.082


Stream size : 422 MiB (80%)



Audio


ID : 2


Format : AAC


Format/Info : Advanced Audio Codec


Format profile : LC


Codec ID : 40


Duration : 1h 16mn


Bit rate mode : Variable


Bit rate : 192 Kbps


Maximum bit rate : 282 Kbps


Channel(s) : 2 channels


Channel positions : Front: L R


Sampling rate : 44.1 KHz


Compression mode : Lossy


Stream size : 104 MiB (20%)









http://BillionUploads.com/z2dalin12dft





Hola
http://www.identi.li/index.php?topic=263840

Te invito a pasar a mi humilde y olvidado post de esta fantastica serie Metal Evolution Series sobre origen del metal y sus distintas ramificaciones  SERIE COMPLETA TOTALMENTE SUBTITULADA EN EL MEJOR FORMATO MKV










Megadeth Behind the Music Rip Subtitulado (Bu)
40 Puntos Score: 10/10
Visitas: 585 Favoritos: 2
Ver los usuarios que votaron...
5 Comentarios Megadeth Behind the Music Rip Subtitulado (Bu)
GENIAL!!!!!

GRAN aporte!!!
excelentisimo gracias rafa
q puedo decir amo megadeth (iradeth)
Para dejar un comentario Registrate! o.. eres ya usuario? Accede!