El Cielo se Equivoco (Chances Are 1989 ) latino


En esta pelicula de comedia romantica llamada Chances Are, Corinne (Cybill Shepherd) nunca ha sido capaz de superar la muerte de su marido, ocurrida cuando estaba embarazada de su hija Miranda (Mary Stuart Masterson). Philip (Ryan O?Neal) siempre la ha amado en secreto pero, de momento, se tiene que conformar con ser su amigo. A todo esto, a Miranda le sale un pretendiente, Alex Finch (Robert Downey Jr.). Nada fuera de lo normal, excepto que Alex es la reencarnación del difunto marido de Corinne.
 
Titulo Original: Chances Are
Titulo Hispano: El Cielo se Equivoco
Idioma: Español Latino
País: USA
Año: 1989
Género: Comedia. Romance | Comedia romántica
Tamaño: 849 Mb
Imagen: DVDRip
Formato: .mp4


Capturas




Format                         : MPEG-4
Format profile                 : Base Media / Version 2
Codec ID                       : mp42
File size                      : 844 MiB
Duration                       : 1h 48mn
Overall bit rate mode          : Variable
Overall bit rate               : 1 090 Kbps
Encoded date                   : UTC 2013-11-05 19:38:51
Tagged date                    : UTC 2013-11-05 20:32:32
Writing application            : HandBrake 0.9.9 2013052900

Video
ID                             : 1
Format                         : AVC
Format/Info                    : Advanced Video Codec
Format profile                 : [email protected]
Format settings, CABAC         : Yes
Format settings, ReFrames      : 4 frames
Codec ID                       : avc1
Codec ID/Info                  : Advanced Video Coding
Duration                       : 1h 48mn
Bit rate mode                  : Variable
Bit rate                       : 923 Kbps
Width                          : 720 pixels
Height                         : 480 pixels
Display aspect ratio           : 4:3
Original display aspect ratio  : 4:3
Frame rate mode                : Variable
Frame rate                     : 23.976 fps
Minimum frame rate             : 19.969 fps
Maximum frame rate             : 59.960 fps
Standard                       : NTSC
Color space                    : YUV
Chroma subsampling             : 4:2:0
Bit depth                      : 8 bits
Scan type                      : Progressive
Bits/(Pixel*Frame)             : 0.111
Stream size                    : 715 MiB (85%)
Writing library                : x264 core 130 r2273 b3065e6
Encoding settings              : cabac=1 / ref=1 / deblock=1:0:0 / analyse=0x1:0x111 / me=hex / subme=2 / psy=1 / psy_rd=1.00:0.00 / mixed_ref=0 / me_range=16 / chroma_me=1 / trellis=0 / 8x8dct=0 / cqm=0 / deadzone=21,11 / fast_pskip=1 / chroma_qp_offset=0 / threads=3 / lookahead_threads=1 / sliced_threads=0 / nr=0 / decimate=1 / interlaced=0 / bluray_compat=0 / constrained_intra=0 / bframes=3 / b_pyramid=2 / b_adapt=1 / b_bias=0 / direct=1 / weightb=1 / open_gop=0 / weightp=1 / keyint=240 / keyint_min=24 / scenecut=40 / intra_refresh=0 / rc_lookahead=10 / rc=crf / mbtree=1 / crf=20.0 / qcomp=0.60 / qpmin=0 / qpmax=69 / qpstep=4 / vbv_maxrate=20000 / vbv_bufsize=25000 / crf_max=0.0 / nal_hrd=none / ip_ratio=1.40 / aq=1:1.00
Encoded date                   : UTC 2013-11-05 19:38:51
Tagged date                    : UTC 2013-11-05 20:32:32
Color primaries                : BT.601 NTSC
Transfer characteristics       : BT.709
Matrix coefficients            : BT.601

Audio
ID                             : 2
Format                         : AAC
Format/Info                    : Advanced Audio Codec
Format profile                 : LC
Codec ID                       : 40
Duration                       : 1h 48mn
Bit rate mode                  : Variable
Bit rate                       : 160 Kbps
Maximum bit rate               : 187 Kbps
Channel count                  : 2 channels
Channel positions              : Front: L R
Sampling rate                  : 48.0 KHz
Compression mode               : Lossy
Delay relative to video        : 67ms
Stream size                    : 124 MiB (15%)
Language                       : Spanish
Encoded date                   : UTC 2013-11-05 19:38:51
Tagged date                    : UTC 2013-11-05 20:32:31



El Cielo se Equivoco (Chances Are 1989 ) latino
25 Puntos Score: 8.3/10
Visitas: 13290 Favoritos: 9
Ver los usuarios que votaron...
8 Comentarios El Cielo se Equivoco (Chances Are 1989 ) latino
gracias, la pelicula es parte de mi adolescencia, se podria subir en mega mediafire u otro, ya que putlocker me da problemas, baja un archivo al dia, y eso si no se cae, gracias de nuevo  
BAJANDO LUEGO COMENTO
EXCELENTE PELICULA,,,QUE GRAN APORTE DE LOS CLASICOSSSSSSSSSSSSSSSS.
Gracias por compartir solo la tenia en ingles!!!
una pelicula para disfrutar con tu pareja
Para dejar un comentario Registrate! o.. eres ya usuario? Accede!