Lee Aaron Video Collection 4S








01. Metal Queen
02. Shake It Up
03. Barely Holdin' On
04. Only Human
05. Watcha Do To My Body
06. Sweet Talk
07. Hands On
08. Peace On Earth
09. Some Girls Do
10. Sex With Lowe
11. Sweet Talk (aternative version)














Format                           : AVI
Format/Info                      : Audio Video Interleave
File size                        : 438 MiB
Duration                         : 45mn 40s
Overall bit rate                 : 1 341 Kbps
Writing application              : Lavf51.12.1

Video
ID                               : 0
Format                           : xvid
Codec ID                         : xvid
Duration                         : 45mn 40s
Bit rate                         : 1 200 Kbps
Width                            : 656 pixels
Height                           : 368 pixels
Display aspect ratio             : 16:9
Frame rate                       : 29.970 fps
Bits/(Pixel*Frame)               : 0.166
Stream size                      : 392 MiB (89%)

Audio
ID                               : 1
Format                           : MPEG Audio
Format version                   : Version 1
Format profile                   : Layer 3
Mode                             : Joint stereo
Mode extension                   : MS Stereo
Codec ID                         : 55
Codec ID/Hint                    : MP3
Duration                         : 45mn 40s
Bit rate mode                    : Constant
Bit rate                         : 128 Kbps
Channel(s)                       : 2 channels
Sampling rate                    : 44.1 KHz
Compression mode                 : Lossy
Stream size                      : 41.8 MiB (10%)
Alignment                        : Aligned on interleaves
Interleave, duration             : 26 ms (0.78 video frame)
Writing library                  : LAME3.97


















Hola
http://www.identi.li/index.php?topic=263840

Te invito a pasar a mi humilde y olvidado post de esta fantastica serie Metal Evolution Series sobre origen del metal y sus distintas ramificaciones  SERIE COMPLETA TOTALMENTE SUBTITULADA EN EL MEJOR FORMATO MKV










Lee Aaron Video Collection 4S
10 Puntos Score: 10/10
Visitas: 662 Favoritos: 0
Ver los usuarios que votaron...
2 Comentarios Lee Aaron Video Collection 4S
no he escuchado de ella, pero vamos a ver como esta. saludos
Muchas gracias  
Para dejar un comentario Registrate! o.. eres ya usuario? Accede!