Oops.. Este post tiene los enlaces eliminados!

Identi revisa las denuncias de los usuarios en busca de enlaces eliminados que no dejan descargar los archivos, este mensaje te informa que este post que estas viendo tiene los enlaces eliminados.

Usa el Buscador

Por favor, te recomendamos que uses el buscador para encontrar más alternativas.

Jimmy Page The Edge Jack White Might Get Loud Bu

  • Categoría: Reciclaje
  • Publicado hace más de 2 años





It Might Get Loud es una película documental de la cineasta Davis Guggenheim . Explora las carreras y estilos de los músicos de rock prominentes de Jimmy Page , The Edge y Jack White . [ 1 ] La película recibió una gran liberación, el 14 de agosto de 2009 en los EE.UU. por Sony Pictures Classics .

La película documenta la variedad de estilos de juego y el registro de los guitarristas de Jimmy Page , The Edge y Jack White .
La historia de la página con la guitarra se remonta a su infancia, cuando jugaba en un skiffle banda. Después de que desee hacer algo más que reproducir la música pop, la página "retira" de guitarra para asistir a la escuela de arte. Más tarde revive su carrera musical como guitarrista de sesión, sólo para ser desalentado por la comprensión de que él está jugando la música de otros y sofocando su propia creatividad. En ese momento, la página comienza a escribir y representar en las bandas The Yardbirds y Led Zeppelin . Página discute el skiffle y el blues de la música que le influyó en su momento. Para muchas de las escenas de página, se le ve visitando Headley Grange , donde varias canciones de Led Zeppelin IV se registraron, y en una escena, explica cómo el sonido distintivo del tambor de " When the Levee Breaks "se logró a partir de la acústica de la casa que se registró pulg
La historia de The Edge con la guitarra se remonta a la construcción de una guitarra con su hermano Dik y aprender a tocar. En la película, él visita Mount Temple Comprehensive School y recuerda la formación de U2 en su infancia. También demuestra su técnica de juego, en la forma en que elimina ciertas cadenas de acordes, así como su uso de eco y retardo efectos para "llenar las notas que no están allí". También habla de su compra de su guitarra de la firma, el Explorador de Gibson , en la ciudad de Nueva York y la música punk que le influyó. En otras escenas, él juega maquetas iniciales de " Donde las calles no tienen nombre ", habla de su inspiración para" Sunday Bloody Sunday ", y dedica tiempo a experimentar con efectos de guitarra para los riffs de" Get on Your Boots ".
Jack White traza su fondo musical de su infancia en un barrio venido de Detroit . Vivir con dos juegos de batería y una guitarra ocupando su habitación y dormir sobre un pedazo de espuma debido a sacar su cama por más espacio para su música, Blanco luchó por encontrar una identidad musical, ya que era "cool" a tocar un instrumento y sus nueve hermanos compartían una propensión musical. Su gran interés por el blues y la música de raíces se opuso al hip hop y la música de la casa popular en el sur predominantemente latina barrio de Detroit en el momento. Blanco finalmente encuentra un nicho en un garage rock banda llamada Los Tapiceros , mientras trabajaba como tapicero , lo que allana el camino para sus futuras bandas The White Stripes y The Raconteurs . La filosofía de las blancas es limitar y desafiarse a sí mismo en diversas formas de forzar enfoques creativos para la grabación y la reproducción.
La piedra de toque de la película es una reunión de los tres guitarristas denominado "La Cumbre". En estas escenas, los tres guitarristas no sólo converse acerca de sus influencias y técnicas, sino que también desempeñan las canciones de cada uno juntos, mostrando unos a otros cómo jugar " I Will Follow "," hojas muertas y el Dirty Ground ", y" En Mi Time of Dying ". La película concluye con los hombres jugando una versión improvisada cubierta de The Band 's " El Peso "en las guitarras acústicas .





VideosIt Might Get Loud.avi

Format                                   : AVI

Format/Info                              : Audio Video Interleave

Format profile                           : OpenDML

File size                                : 1.12 GiB

Duration                                 : 1h 37mn

Overall bit rate                         : 1 643 Kbps

Writing application                      : Lavf51.12.1


Video

ID                                       : 0

Format                                   : xvid

Codec ID                                 : xvid

Duration                                 : 1h 37mn

Bit rate                                 : 1 499 Kbps

Width                                    : 1 280 pixels

Height                                   : 720 pixels

Display aspect ratio                     : 16:9

Frame rate                               : 23.976 fps

Bits/(Pixel*Frame)                       : 0.068

Stream size                              : 1.03 GiB (91%)


Audio

ID                                       : 1

Format                                   : MPEG Audio

Format version                           : Version 1

Format profile                           : Layer 3

Mode                                     : Joint stereo

Mode extension                           : MS Stereo

Codec ID                                 : 55

Codec ID/Hint                            : MP3

Duration                                 : 1h 37mn

Bit rate mode                            : Constant

Bit rate                                 : 128 Kbps

Channel count                            : 2 channels

Sampling rate                            : 44.1 KHz

Compression mode                         : Lossy

Stream size                              : 89.7 MiB (8%)

Alignment                                : Aligned on interleaves

Interleave, duration                     : 26 ms (0.63 video frame)

Writing library                          : LAME3.97










http://BillionUploads.com/ajb2lqx4z557

Subtitulos pegados Ripeado por mi disfruten




Hola
http://www.identi.li/index.php?topic=263840

Te invito a pasar a mi humilde y olvidado post de esta fantastica serie Metal Evolution Series sobre origen del metal y sus distintas ramificaciones  SERIE COMPLETA TOTALMENTE SUBTITULADA EN EL MEJOR FORMATO MKV










Jimmy Page The Edge Jack White Might Get Loud Bu
60 Puntos Score: 10/10
Visitas: 1965 Favoritos: 0
Ver los usuarios que votaron...
11 Comentarios Jimmy Page The Edge Jack White Might Get Loud Bu
Excelente aporte. Recomendable totalmente. Gracias por compartir. Larga vida al rock and roll.  
@AngMc1994 @albramar gracias si gustan despues me ayudarian comentando la calidad del video  
muy buen rip  Rafa, como se q te tardaste en convertirlo y es un buen aporte +10
Cita DEVILDOLL: Mostrar
gracias pero mejor no comentes ac?
orale... ya la vi pero en muy baja resoluci?
@xosele
Cita xosele: Mostrar
Buen aporte  
Para dejar un comentario Registrate! o.. eres ya usuario? Accede!