Thursday [Unrated Director's Cut].1998.DVDRip +18




Título original
Thursday
Año
1998
Duración
83 min.
País
 Estados Unidos
Director
Skip Woods
Guión
Skip Woods
Música
Luna
Fotografía
Denis Lenoir
Reparto
Thomas Jane, Aaron Eckhart, Paulina Porizkova, James LeGros, Paula Marshall, Michael Jeter, Glenn Plummer, Mickey Rourke
Productora
Polygram Filmed Entertainment / Propaganda Films
Género
Thriller. Acción | Crimen
Sinopsis
Casey es un hombre casado que vive en un barrio residencial y trabaja como arquitecto. Su rutinaria vida se ve alterada cuando aloja en su casa a un amigo, cuyo equipaje contiene heroína.




Capturas



General
Complete name                            :Thursday [Unrated Director's Cut].1998.DVDRip.XviD.AC3-VLiS
Format                                   : AVI
Format/Info                              : Audio Video Interleave
File size                                : 1.20 GiB
Duration                                 : 1h 27mn
Overall bit rate                         : 1 966 Kbps
Writing application                      : VirtualDubMod 1.5.10.2 (build 2542/release)
Writing library                          : VirtualDubMod build 2542/release

Video
ID                                       : 0
Format                                   : MPEG-4 Visual
Format profile                           : Advanced [email protected]
Format settings, BVOP                    : 2
Format settings, QPel                    : No
Format settings, GMC                     : No warppoints
Format settings, Matrix                  : Default (MPEG)
Codec ID                                 : XVID
Codec ID/Hint                            : XviD
Duration                                 : 1h 27mn
Bit rate                                 : 1 508 Kbps
Width                                    : 720 pixels
Height                                   : 384 pixels
Display aspect ratio                     : 1.85:1
Frame rate                               : 23.976 fps
Color space                              : YUV
Chroma subsampling                       : 4:2:0
Bit depth                                : 8 bits
Scan type                                : Progressive
Compression mode                         : Lossy
Bits/(Pixel*Frame)                       : 0.228
Stream size                              : 945 MiB (77%)
Writing library                          : XviD 1.2.1 (UTC 2008-12-04)

Audio
ID                                       : 1
Format                                   : AC-3
Format/Info                              : Audio Coding 3
Mode extension                           : CM (complete main)
Format settings, Endianness              : Big
Codec ID                                 : 2000
Duration                                 : 1h 27mn
Bit rate mode                            : Constant
Bit rate                                 : 448 Kbps
Channel count                            : 6 channels
Channel positions                        : Front: L C R, Side: L R, LFE
Sampling rate                            : 48.0 KHz
Bit depth                                : 16 bits
Compression mode                         : Lossy
Delay relative to video                  : 5ms
Stream size                              : 281 MiB (23%)
Alignment                                : Split accross interleaves
Interleave, duration                     : 42 ms (1.00 video frame)
Interleave, preload duration             : 500 ms



Idioma ingles con subtitulos en español srt incluidos en el rar servidor putlocker





Thursday [Unrated Director's Cut].1998.DVDRip +18
0 Puntos Score: 0/10
Visitas: 2656 Favoritos: 6
9 Comentarios Thursday [Unrated Director's Cut].1998.DVDRip +18
La tengo!!
Pelicul?
con putloker voy a estar hasta fin de a?
La de pajas que me hice con la mina esta!!!!!!!!!!!!!!!!
Cita Rorscharch: Mostrar

Jajajajajaja, a puta!, ahora s?
jajajajajaja, esta terrible la mina esta man!!!!
PELICULOOOOOOOOOOOONNNNN !!!!!!!!!!!!    
@Dark_Lex amigo buscala por torrent lo de ahi la descargue y no se tardo mucho
gracias descargada sin problemas, saludos!  
Para dejar un comentario Registrate! o.. eres ya usuario? Accede!