Queen Jewels (Bu)





Format                                   : Matroska

Format version                           : Version 2

File size                                : 735 MiB

Duration                                 : 1h 2mn

Overall bit rate mode                    : Variable

Overall bit rate                         : 1 633 Kbps

Writing application                      : Lavf51.12.1

Writing library                          : Lavf51.12.1


Video

ID                                       : 1

Format                                   : AVC

Format/Info                              : Advanced Video Codec

Format profile                           : [email protected]

Format settings, CABAC                   : No

Format settings, ReFrames                : 1 frame

Format settings, GOP                     : M=1, N=12

Codec ID                                 : V_MPEG4/ISO/AVC

Duration                                 : 1h 2mn

Bit rate mode                            : Variable

Bit rate                                 : 1 473 Kbps

Maximum bit rate                         : 1 800 Kbps

Width                                    : 720 pixels

Height                                   : 480 pixels

Display aspect ratio                     : 3:2

Original display aspect ratio            : 3:2

Frame rate mode                          : Constant

Frame rate                               : 29.970 fps

Original frame rate                      : 24.000 fps

Standard                                 : NTSC

Color space                              : YUV

Chroma subsampling                       : 4:2:0

Bit depth                                : 8 bits

Scan type                                : Progressive

Bits/(Pixel*Frame)                       : 0.142

Stream size                              : 663 MiB (90%)

Default                                  : Yes

Forced                                   : No


Audio

ID                                       : 2

Format                                   : MPEG Audio

Format version                           : Version 1

Format profile                           : Layer 2

Codec ID                                 : A_MPEG/L2

Codec ID/Hint                            : MP2

Duration                                 : 1h 2mn

Bit rate mode                            : Constant

Bit rate                                 : 128 Kbps

Channel count                            : 2 channels

Sampling rate                            : 44.1 KHz

Compression mode                         : Lossy

Stream size                              : 57.6 MiB (8%)

Default                                  : Yes

Forced                                   : No






http://BillionUploads.com/dt0n4y0znyyq





Hola
http://www.identi.li/index.php?topic=263840

Te invito a pasar a mi humilde y olvidado post de esta fantastica serie Metal Evolution Series sobre origen del metal y sus distintas ramificaciones  SERIE COMPLETA TOTALMENTE SUBTITULADA EN EL MEJOR FORMATO MKV











- See more at: http://www.identi.li/index.php?topic=274895#sthash.1Br17ymj.dpuf

Queen Jewels (Bu)
30 Puntos Score: 10/10
Visitas: 812 Favoritos: 2
Ver los usuarios que votaron...
10 Comentarios Queen Jewels (Bu)
Muchas gracias   saludos  
Mil Gracias!!!!!!!
MIGO GRAN APORTE PERO MEJOR LO POSTEAS EN MEJOR CALIDAD O DVD FULL. GRACIAS POR TU ATENCION
@BETORAGE la calidad es rip Y ES MUY BUENA PARA QUE SUBIR UN DVD la verdad por lo que subiria 1 puedo subir 4 rips mas
estuvo buena la partida de ayer Yuri  
amigo me encantooo !!! mi novia y yo te lo agradecemos ! la calidad es impecable y el recital fantastico,si tubiera puntos ! no dudaria en dartelos !!! gracias mil gracias !!!!!!!  
@Serpentina
Cita Serpentina: Mostrar
que bueno que te guste para eso los subo disfruten gracias
Para dejar un comentario Registrate! o.. eres ya usuario? Accede!