Beverly Hills Ninja Chris Farley audio latino

Beverly Hills Ninja conocida en España como La salchicha peleona y Un ninja en Beverly Hills en Latinoamerica es una película cómica de 1997 dirigida por Dennis Dugan y protagonizada por Chris Farley. Como co-protagonistas actúan, Nicollette Sheridan, Nathaniel Parker, Robin Shou, Soon-Tek Oh y Chris Rock
Fue producida por TriStar Pictures y estrenada en Estados Unidos el 17 de enero de 1997.
Farley sólo sobreviviría 11 meses a la salida de esta película, debido a su repentina muerte a finales de ese mismo año. Previamente, logró rodar Almost Heroes y Dirty Work, estrenadas póstumamente en 1998.
El actor fue nominado en los MTV Movie Awards de 1997 como Mejor Actuación Cómica en Beverly Hills Ninja.


Cuenta una antigua leyenda japonesa, que un buen día aparecería un hombre extranjero de raza blanca y se convertiría en el mayor ninja que haya habido jamás. Siglos más tarde hasta llegar al siglo actual, un bebé blanco aparece inexplicablemente entre un clan y es criado por ellos asumiendo que la profecía se ha cumplido. Ese niño es Harú (Chris Farley), sin embargo la destreza del ninja blanco dista bastante de lo que marcaba la leyenda, pues es torpe, al llegar la graduación, él se lleva una decepción, no consigue graduarse como el resto de la clase
Un día mientras le toca hacer guardia en el d?j?, se presenta una mujer, Sally Jones (Nicollette Sheridan), para requerir los servicios de un ninja para investigar a su marido (Nathaniel Parker). A pesar de no estar del todo preparado, su sensei (Soon-Tek Oh) le manda a investigar a Beverly Hills, pero lejos de mandarle solo, le pide a Gobei (Robin Shou) que le acompañe sin ser visto por él.
Ya en California, Harú llega al puerto en donde descubre que el marido de la mujer, Tanley está envuelto en negocios de contrabando, lamentablemente resulta ser testigo de un asesinato y las sospechas empiezan a recaer sobre el clan de ninjas al que pertenece Harú.



Capturas



General
Format                         : MPEG-4
Format profile                 : Base Media
Codec ID                       : isom
File size                      : 421 MiB
Duration                       : 1h 28mn
Overall bit rate mode          : Variable
Overall bit rate               : 664 Kbps
Encoded date                   : UTC 2013-12-03 06:09:01
Tagged date                    : UTC 2013-12-03 06:09:01

Video
ID                             : 1
Format                         : AVC
Format/Info                    : Advanced Video Codec
Format profile                 : [email protected]
Format settings, CABAC         : Yes
Format settings, ReFrames      : 4 frames
Codec ID                       : avc1
Codec ID/Info                  : Advanced Video Coding
Duration                       : 1h 28mn
Bit rate mode                  : Constant
Bit rate                       : 600 Kbps
Maximum bit rate               : 1 668 Kbps
Width                          : 640 pixels
Height                         : 360 pixels
Display aspect ratio           : 16:9
Original display aspect ratio  : 16:9
Frame rate mode                : Constant
Frame rate                     : 23.976 fps
Color space                    : YUV
Chroma subsampling             : 4:2:0
Bit depth                      : 8 bits
Scan type                      : Progressive
Bits/(Pixel*Frame)             : 0.109
Stream size                    : 380 MiB (90%)
Title                          : ›.’|Z
Encoded date                   : UTC 2013-12-03 06:09:01
Tagged date                    : UTC 2013-12-03 06:10:33

Audio
ID                             : 2
Format                         : AAC
Format/Info                    : Advanced Audio Codec
Format profile                 : LC
Codec ID                       : 40
Duration                       : 1h 28mn
Bit rate mode                  : Variable
Bit rate                       : 61.7 Kbps
Maximum bit rate               : 64.2 Kbps
Channel count                  : 2 channels
Channel positions              : Front: L R
Sampling rate                  : 44.1 KHz
Compression mode               : Lossy
Stream size                    : 39.1 MiB (9%)
Title                          : ›.’|Z
Encoded date                   : UTC 2013-12-03 06:10:20
Tagged date                    : UTC 2013-12-03 06:10:33



Descarga putlocker
Beverly Hills Ninja Chris Farley audio latino
0 Puntos Score: 0/10
Visitas: 4632 Favoritos: 1
2 Comentarios Beverly Hills Ninja Chris Farley audio latino
amo esa peli jajja muchas gracias!!!!
Para dejar un comentario Registrate! o.. eres ya usuario? Accede!