Clerks (1994) (Kevin Smith) audio latino comedia


Clerks (en español: Dependientes) es una comedia estadounidense de 1994 y ópera prima de Kevin Smith, que ejerció como guionista, director y actor secundario como Bob el silencioso. Tras su buena acogida en el festival de Sundance, esta película ha sido considerada una joya del cine independiente norteamericano. Su trama es bien sencilla: un día cualquiera en la vida de un empleado en una pequeña tienda de autoservicio. Partiendo de una base tan simple, la película consiste casi exclusivamente en hora y media de ágiles y rápidos diálogos, en un único escenario, el supermercado, rodados en blanco y negro con una estética totalmente minimalista, haciendo de la necesidad virtud, ya que el presupuesto de la cinta era verdaderamente reducido.
Clerks constituye el punto de partida de una serie de películas (Mallrats, Persiguiendo a Amy, Dogma, Jay y Bob el Silencioso contraatacan, Clerks II) en las que repiten los personajes Jay y Bob el silencioso, éste último interpretado por el propio Kevin Smith.


La película está rodada en blanco y negro. Está realizada con presupuesto de apenas 27.575 dólares. Para adquirir fondos con los que poder realizar el filme Kevin Smith vendió parte de su extensa colección de historietas en 1993, a su vez utilizó entre ocho y diez tarjetas de crédito que tenían 2000 dólares como límite de crédito, utilizó también parte de los ahorros que poseía para sus estudios universitarios y finalmente utilizó el dinero del seguro del automóvil de Jason Mewes ganado por la pérdida de su auto en una inundación.1 La película fue filmada en 21 días. Originalmente Kevin Smith escribió el rol de Randal Graves para sí mismo, esto de acuerdo a Smith, según dice en el DVD, se debía a que Randal tenía las mejores líneas.



Capturas 




Format                         : MPEG-4
Format profile                 : Base Media
Codec ID                       : isom
File size                      : 435 MiB
Duration                       : 1h 31mn
Overall bit rate mode          : Variable
Overall bit rate               : 663 Kbps
Encoded date                   : UTC 2013-12-03 06:17:14
Tagged date                    : UTC 2013-12-03 06:17:14

Video
ID                             : 1
Format                         : AVC
Format/Info                    : Advanced Video Codec
Format profile                 : [email protected]
Format settings, CABAC         : Yes
Format settings, ReFrames      : 4 frames
Codec ID                       : avc1
Codec ID/Info                  : Advanced Video Coding
Duration                       : 1h 31mn
Bit rate mode                  : Constant
Bit rate                       : 600 Kbps
Maximum bit rate               : 1 537 Kbps
Width                          : 640 pixels
Height                         : 360 pixels
Display aspect ratio           : 16:9
Original display aspect ratio  : 16:9
Frame rate mode                : Constant
Frame rate                     : 23.976 fps
Color space                    : YUV
Chroma subsampling             : 4:2:0
Bit depth                      : 8 bits
Scan type                      : Progressive
Bits/(Pixel*Frame)             : 0.109
Stream size                    : 392 MiB (90%)
Title                          : ›.’|?
Encoded date                   : UTC 2013-12-03 06:17:14
Tagged date                    : UTC 2013-12-03 06:18:54

Audio
ID                             : 2
Format                         : AAC
Format/Info                    : Advanced Audio Codec
Format profile                 : LC
Codec ID                       : 40
Duration                       : 1h 31mn
Bit rate mode                  : Variable
Bit rate                       : 61.7 Kbps
Maximum bit rate               : 64.2 Kbps
Channel count                  : 2 channels
Channel positions              : Front: L R
Sampling rate                  : 44.1 KHz
Compression mode               : Lossy
Stream size                    : 40.5 MiB (9%)
Title                          : ›.’|?
Encoded date                   : UTC 2013-12-03 06:18:39
Tagged date                    : UTC 2013-12-03 06:18:54



Servidor putlocker


Clerks (1994) (Kevin Smith) audio latino comedia
0 Puntos Score: 0/10
Visitas: 3289 Favoritos: 0
1 Comentarios Clerks (1994) (Kevin Smith) audio latino comedia
mil gracias viejo
Para dejar un comentario Registrate! o.. eres ya usuario? Accede!