El maestro del disfraz Master of Disguise latino

Saludos aqui les dejo esta pelicula para pasar el rato


Título original
The Master of Disguise
Año
2002
Duración
97 min.
País
 Estados Unidos
Director
Perry Andelin Blake
Guión
Harris Goldberg
Música
Marc Ellis
Fotografía
Peter Lyons Collister
Reparto
Dana Carvey, Brent Spiner, Jennifer Esposito, Harold Gould, James Brolin, Maria Canals, Mark Devine, Austin Wolff, Edie McClurg, Bo Derek
Productora
Columbia Pictures
Género
Comedia

Sinopsis
Pistachio Disguisey (Carvey) es un camarero que trabaja en el restaurante italiano de su padre, Fabbrizio?s (James Brolin), y que posee un asombroso don para la mímica. Lo que no sabe es que su talento es genético y que es el descendiente de un extenso linaje de "maestros del disfraz", los cuales han heredado un secreto don familiar conocido como "enérgico". Haciendo uso de este poder, el padre de Pistachio puede instantáneamente pasar de ser una famosa estrella del pop, a convertirse en el mejor héroe deportivo de todos los tiempos, permitiéndole el paso a cualquier lugar prohibido. Tan mágica habilidad hace que Fabbrizio sea el blanco perfecto para su archienemigo Devlin Bowman (Brent Spiner), un diabólico cerebro del crimen que planea robar los tesoros más valiosos del mundo. Cuando Fabbrizio y la mamá Disguisey (Edie McClurg) desaparecen de repente, su hijo Pistachio se siente desolado. Proponiéndose rescatar a sus queridos padres, Pistachio se queda estupefacto al enterarse, de la mano de su abuelo (Harold Gould), de la verdad sobre la dinastía Disguisey. El abuelo le enseña las técnicas de transformación "enérgico" con la ayuda de su guapa ayudante Jennifer (Jennifer Esposito). Al principio Pistachio es un patoso, pero poco a poco, aprende a utilizar su poder y llega a hacerse un experto en la utilización de "enérgico", en un intento por entrar en la guarida de Devlin y rescatar a Fabrizio y mamá Disguisey. 


Capturas 


Video                          MP4
ID                             : 1
Format                         : AVC
Format/Info                    : Advanced Video Codec
Format profile                 : [email protected]
Format settings, CABAC         : Yes
Format settings, ReFrames      : 4 frames
Codec ID                       : avc1
Codec ID/Info                  : Advanced Video Coding
Duration                       : 1h 20mn
Bit rate mode                  : Constant
Bit rate                       : 600 Kbps
Maximum bit rate               : 1 720 Kbps
Width                          : 640 pixels
Height                         : 360 pixels
Display aspect ratio           : 16:9
Original display aspect ratio  : 16:9
Frame rate mode                : Constant
Frame rate                     : 23.976 fps
Color space                    : YUV
Chroma subsampling             : 4:2:0
Bit depth                      : 8 bits
Scan type                      : Progressive
Bits/(Pixel*Frame)             : 0.109
Stream size                    : 344 MiB (90%)
Title                          : ›.’|
Encoded date                   : UTC 2013-12-02 09:56:06
Tagged date                    : UTC 2013-12-02 09:57:38

Audio
ID                             : 2
Format                         : AAC
Format/Info                    : Advanced Audio Codec
Format profile                 : LC
Codec ID                       : 40
Duration                       : 1h 20mn
Bit rate mode                  : Variable
Bit rate                       : 61.7 Kbps
Maximum bit rate               : 68.0 Kbps
Channel count                  : 2 channels
Channel positions              : Front: L R
Sampling rate                  : 44.1 KHz
Compression mode               : Lossy
Stream size                    : 35.5 MiB (9%)
Title                          : ›.’|
Encoded date                   : UTC 2013-12-02 09:57:26
Tagged date                    : UTC 2013-12-02 09:57:38


Servidor putlocker
El maestro del disfraz Master of Disguise latino
0 Puntos Score: 0/10
Visitas: 4442 Favoritos: 2
1 Comentarios El maestro del disfraz Master of Disguise latino
Hola podrias resubirla por favor
Para dejar un comentario Registrate! o.. eres ya usuario? Accede!