Apocalyptica The Life Burns (Bu)




The Life Burns Tour es el segundo DVD en vivo de la banda Finlandesa Apocalyptica. Contiene el concierto completo grabado en Düsseldorf, Alemania el 5 de diciembre del 2005.






1. Intro - Apocalyptica 00:46
2. Path 02:34
3. Master of Puppets 07:14
4. Somewhere Around Nothing 04:40
5. Fight Fire With Fire 03:57
6. Quutamo 03:43
7. Heat 03:25
8. Betrayal 04:07
9. Nothing Else Matters 06:24
10. Hope 03:44
11. Life Burns 03:09
12. Fisheye 04:36
13. Bittersweet 05:25
14. Seek and Destroy 05:19
15. Prologue 03:02
16. Creeping Death 04:29
17. Inquisition Symphony 06:10
18. Enter Sandman 03:32
19. Refuse / Resist 05:07
20. Hall of the Mountain King 04:41



Format                                   : AVI
Format/Info                              : Audio Video Interleave
File size                                : 702 MiB
Duration                                 : 1h 27mn
Overall bit rate                         : 1 118 Kbps
Writing application                      : Lavf51.12.1

Video
ID                                       : 0
Format                                   : AVC
Format/Info                              : Advanced Video Codec
Format profile                           : [email protected]
Format settings, CABAC                   : No
Format settings, ReFrames                : 2 frames
Format settings, GOP                     : M=1, N=12
Codec ID                                 : H264
Duration                                 : 1h 27mn
Bit rate                                 : 946 Kbps
Width                                    : 608 pixels
Height                                   : 352 pixels
Display aspect ratio                     : 4:3
Frame rate                               : 25.000 fps
Standard                                 : PAL
Color space                              : YUV
Chroma subsampling                       : 4:2:0
Bit depth                                : 8 bits
Scan type                                : Progressive
Bits/(Pixel*Frame)                       : 0.177
Stream size                              : 594 MiB (85%)
Color primaries                          : BT.601 PAL
Transfer characteristics                 : BT.470 System B, BT.470 System G
Matrix coefficients                      : BT.601

Audio
ID                                       : 1
Format                                   : MPEG Audio
Format version                           : Version 1
Format profile                           : Layer 3
Mode                                     : Joint stereo
Mode extension                           : MS Stereo
Codec ID                                 : 55
Codec ID/Hint                            : MP3
Duration                                 : 1h 27mn
Bit rate mode                            : Constant
Bit rate                                 : 160 Kbps
Channel count                            : 2 channels
Sampling rate                            : 44.1 KHz
Compression mode                         : Lossy
Stream size                              : 100 MiB (14%)
Alignment                                : Aligned on interleaves
Interleave, duration                     : 26 ms (0.65 video frame)
Interleave, preload duration             : 26 ms
Writing library                          : LAME3.97















Hola

http://www.identi.li/index.php?topic=263840

Te invito a pasar a mi humilde y olvidado post de esta fantastica serie Metal Evolution Series sobre origen del metal y sus distintas ramificaciones  SERIE COMPLETA TOTALMENTE SUBTITULADA EN EL MEJOR FORMATO MKV










Apocalyptica The Life Burns (Bu)
26 Puntos Score: 6.5/10
Visitas: 1317 Favoritos: 3
Ver los usuarios que votaron...
2 Comentarios Apocalyptica The Life Burns (Bu)
Muchas gracias  
Para dejar un comentario Registrate! o.. eres ya usuario? Accede!