Terminator 1 Mkv Hd Rip Latino (Bu)



Terminator es una película estadounidense de ciencia ficción y acción de 1984, dirigida por James Cameron, coescrita entre Cameron y William Wisher Jr. y protagonizada por Arnold Schwarzenegger, Linda Hamilton y Michael Biehn. El filme, rodado en Los Ángeles, fue producido por Hemdale Film Corporation y distribuido por Orion Pictures. Schwarzenegger interpreta al Terminator, un ciborg asesino enviado a través del tiempo desde el año 2029 a 1984 para asesinar a Sarah Connor, interpretada por Hamilton. Biehn es Kyle Reese, un soldado también enviado desde el futuro con la misión de proteger a Sarah.

Aunque no se esperaba que fuera un éxito comercial o de crítica, Terminator encabezó la taquilla estadounidense durante dos semanas y ayudó a lanzar la carrera cinematográfica de James Cameron y consolidar la de Arnold Schwarzenegger. Se han rodado tres secuelas: Terminator 2: el juicio final (1991), Terminator 3: la rebelión de las máquinas (2003) y Terminator Salvation (2009). En 2008, The Terminator fue seleccionada por la Biblioteca del Congreso de los Estados Unidos para ser preservada en el National Film Registry (Registro Nacional de Cine), siendo considerada «cultural, histórica o estéticamente significativa







Format                                   : Matroska

Format version                           : Version 2

File size                                : 968 MiB

Duration                                 : 1h 47mn

Overall bit rate                         : 1 263 Kbps                      :

Encoded date                             : 

Writing application                      : mkvmerge v4.9.1 ('Ich will')

Writing library                          : libebml v1.2.1 + libmatroska v1.1.1


Video

ID                                       : 1

Format                                   : AVC

Format/Info                              : Advanced Video Codec

Format profile                           : [email protected]

Format settings, CABAC                   : Yes

Format settings, ReFrames                : 5 frames

Muxing mode                              : Header stripping

Codec ID                                 : V_MPEG4/ISO/AVC

Duration                                 : 1h 47mn

Bit rate                                 : 814 Kbps

Width                                    : 1 280 pixels

Height                                   : 688 pixels

Display aspect ratio                     : 1.85:1

Frame rate mode                          : Constant

Frame rate                               : 23.976 fps

Color space                              : YUV

Chroma subsampling                       : 4:2:0

Bit depth                                : 8 bits

Scan type                                : Progressive

Bits/(Pixel*Frame)                       : 0.039

Stream size                              : 605 MiB (63%)

Writing library                          : x264 core 116 r2074 2641b9e


Default                                  : Yes

Forced                                   : No


Audio

ID                                       : 2

Format                                   : AC-3

Format/Info                              : Audio Coding 3

Mode extension                           : CM (complete main)

Format settings, Endianness              : Big

Muxing mode                              : Header stripping

Codec ID                                 : A_AC3

Duration                                 : 1h 47mn

Bit rate mode                            : Constant

Bit rate                                 : 448 Kbps

Channel count                            : 6 channels

Channel positions                        : Front: L C R, Side: L R, LFE

Sampling rate                            : 48.0 KHz

Bit depth                                : 16 bits

Compression mode                         : Lossy

Stream size                              : 344 MiB (35%)

Language                                 : Spanish

Default                                  : Yes

Forced                                   : No








http://BillionUploads.com/rw166iaubp9v




Hola

http://www.identi.li/index.php?topic=263840

Te invito a pasar a mi humilde y olvidado post de esta fantastica serie Metal Evolution Series sobre origen del metal y sus distintas ramificaciones  SERIE COMPLETA TOTALMENTE SUBTITULADA EN EL MEJOR FORMATO MKV
















Terminator 1 Mkv Hd Rip Latino (Bu)
20 Puntos Score: 10/10
Visitas: 3322 Favoritos: 4
Ver los usuarios que votaron...
4 Comentarios Terminator 1 Mkv Hd Rip Latino (Bu)
Muchas gracias saludos  
con que programa lo has remasterizado??????
Para dejar un comentario Registrate! o.. eres ya usuario? Accede!