El duende maldito Leprechaun 6 Back 2 tha Hood lat

Aqui les dejo esta pelicula que me encontre por ahi en la web con el tan anelado audio latino

Cuando Emily Woodrow y sus amigos se encuentran con un cofre lleno de monedas de oro, no prestan atención a las advertencias de un viejo loco que lo había pronosticado días antes. Cuando abren el cofre, despiertan a la figura del "Leprechaun", el cual para recuperar su tesoro ha de acabar con la vida de los que le han robado

Género: Terror
País: Estados Unidos
Duración: 87 Minutos
Año: 2003
Formato mp4
Capturas



Format                                   : MPEG-4
Format profile                           : Base Media
Codec ID                                 : isom
File size                                : 424 MiB
Duration                                 : 1h 29mn
Overall bit rate mode                    : Variable
Overall bit rate                         : 660 Kbps
Encoded date                             : UTC 2013-11-29 08:09:54
Tagged date                              : UTC 2013-11-29 08:09:54

Video
ID                                       : 1
Format                                   : AVC
Format/Info                              : Advanced Video Codec
Format profile                           : [email protected]
Format settings, CABAC                   : Yes
Format settings, ReFrames                : 4 frames
Codec ID                                 : avc1
Codec ID/Info                            : Advanced Video Coding
Duration                                 : 1h 29mn
Bit rate mode                            : Constant
Bit rate                                 : 600 Kbps
Maximum bit rate                         : 1 888 Kbps
Width                                    : 640 pixels
Height                                   : 360 pixels
Display aspect ratio                     : 16:9
Original display aspect ratio            : 16:9
Frame rate mode                          : Constant
Frame rate                               : 23.976 fps
Color space                              : YUV
Chroma subsampling                       : 4:2:0
Bit depth                                : 8 bits
Scan type                                : Progressive
Bits/(Pixel*Frame)                       : 0.109
Stream size                              : 382 MiB (90%)
Title                                    : ›.’|$ 
Encoded date                             : UTC 2013-11-29 08:09:54
Tagged date                              : UTC 2013-11-29 08:11:07

Audio
ID                                       : 2
Format                                   : AAC
Format/Info                              : Advanced Audio Codec
Format profile                           : LC
Codec ID                                 : 40
Duration                                 : 1h 29mn
Bit rate mode                            : Variable
Bit rate                                 : 61.7 Kbps
Maximum bit rate                         : 69.2 Kbps
Channel count                            : 2 channels
Channel positions                        : Front: L R
Sampling rate                            : 44.1 KHz
Compression mode                         : Lossy
Stream size                              : 39.7 MiB (9%)
Title                                    : ›.’|$ 
Encoded date                             : UTC 2013-11-29 08:10:55
Tagged date                              : UTC 2013-11-29 08:11:07


Descarga por putlocker
El duende maldito Leprechaun 6 Back 2 tha Hood lat
20 Puntos Score: 10/10
Visitas: 14327 Favoritos: 2
Ver los usuarios que votaron...
5 Comentarios El duende maldito Leprechaun 6 Back 2 tha Hood lat
Que horrible pelicula cuando se vio al duende fumar marihuana por mala te doy 10
cual es donde el duende se pone a cantar hip hop? o donde esta en el espacio y se vuelve gigante??
Amigo, seguro que el video con audio latino lo encontraste fuera de identi. por que yo lo publique hace un dia y esta igual al mio.
MANDAME UN MP CON EL LINK DEL SITIO DONDE LO ENCONTRASTE.
@taitus amigo antes de publicar esta pelicula yo entre a identi y vi tu post y pense en descargar el audio y buscar un video para sincronizarlo pero recorde que ya habia visto la pelicula en otro sitio, de ahi la descargue y el audio latino no es el tuyo,el video asi esta completo yo no le a?
Para dejar un comentario Registrate! o.. eres ya usuario? Accede!