La Fuerza del cariño 2 La vida conti dvdrip latino



Saludos otra vezXD,bueno hace varios meses comparti la primera parte de esta pelicula, ahora les vengo a dejar la segunda,estas peliculas yo la tenia grabadas de la television en audio latino,pero la calidad era un poco baja,un dia me di la vuelta por un centro de video y me consegui los dvd full pero solo en ingles con subtitulos en español,asi que me di a la tarea de hacer unos dvdrip y añadirles el audio latino



Título original
The Evening Star
Año
1996
Duración
129 min.
País
 Estados Unidos
Director
Robert Harling
Guión
Robert Harling (Novela: Larry McMurtry)
Música
William Ross
Fotografía
Don Burgess
Reparto
Shirley MacLaine, Bill Paxton, Juliette Lewis, Miranda Richardson, Jack Nicholson, Scott Wolf, Ben Johnson, Mackenzie Astin, Donald Moffat, Jennifer Grant
Productora
Paramount Pictures
Género
Comedia. Drama | Secuela
Sinopsis
Con el paso de los años, Aurora se plantea si ha educado bien a sus tres nietos después de la muerte de su madre. El mayor cumple condena por tenencia de drogas, la pequeña se enamora de un sinvergüenza y el mediano vive con una joven de la que tiene un hijo. A pesar de todo lo que se ha sacrificado por ellos, los tres parecen odiarla


Capturas



Format                                   : AVI
Format/Info                              : Audio Video Interleave
File size                                : 1.43 GiB
Duration                                 : 2h 8mn
Overall bit rate                         : 1 583 Kbps
Writing application                      : VirtualDubMod 1.5.10.2 (build 2540/release)
Writing library                          : VirtualDubMod build 2540/release

Video
ID                                       : 0
Format                                   : MPEG-4 Visual
Format profile                           : Advanced [email protected]
Format settings, BVOP                    : 1
Format settings, QPel                    : No
Format settings, GMC                     : No warppoints
Format settings, Matrix                  : Custom
Codec ID                                 : XVID
Codec ID/Hint                            : XviD
Duration                                 : 2h 8mn
Bit rate                                 : 1 382 Kbps
Width                                    : 720 pixels
Height                                   : 416 pixels
Display aspect ratio                     : 1.731
Frame rate                               : 23.976 fps
Color space                              : YUV
Chroma subsampling                       : 4:2:0
Bit depth                                : 8 bits
Scan type                                : Progressive
Compression mode                         : Lossy
Bits/(Pixel*Frame)                       : 0.192
Stream size                              : 1.24 GiB (87%)
Writing library                          : XviD 64

Audio
ID                                       : 1
Format                                   : AC-3
Format/Info                              : Audio Coding 3
Mode extension                           : CM (complete main)
Format settings, Endianness              : Big
Codec ID                                 : 2000
Duration                                 : 2h 8mn
Bit rate mode                            : Constant
Bit rate                                 : 192 Kbps
Channel count                            : 2 channels
Channel positions                        : Front: L R
Sampling rate                            : 48.0 KHz
Bit depth                                : 16 bits
Compression mode                         : Lossy
Stream size                              : 177 MiB (12%)
Alignment                                : Split accross interleaves
Interleave, duration                     : 42 ms (1.00 video frame)
Interleave, preload duration             : 500 ms


Descarga por putlocker




Aqui en este link esta la primera parte 
http://www.identi.li/index.php?topic=240503


La Fuerza del cariño 2 La vida conti dvdrip latino
30 Puntos Score: 10/10
Visitas: 9541 Favoritos: 4
Ver los usuarios que votaron...
6 Comentarios La Fuerza del cariño 2 La vida conti dvdrip latino
bajando no sabia que habia secuela gracias por compartir  
Gracia por compartir,saludos.
amigo por favor.. como se baja con el p?
Para dejar un comentario Registrate! o.. eres ya usuario? Accede!