La secretaria Secretary2002 Dvdrip trial latino+18

Saludos,aqui les dejo esta exelente pelicula que ya la he visto varias veces, y aparte al ser trial audio la puedo disfrutar aun mas en diferentes idiomas, la descarga incluye los subtitulos en formato srt




  Secretary (titulada en países hispanohablantes como La secretaria) es una película dramática del año 2002, dirigida por Steven Shainberg, que trata el tema de la dominación y la sumisión. Su historia está basada en el cuento Bad behavior ('Mal comportamiento') de Mary Gaitskill y está protagonizada por Maggie Gyllenhaal y James Spader.


Argumento

Lee Holloway (Maggie Gyllenhaal), la torpe y emocionalmente sensible hija menor de una familia disfuncional, se ajusta a la vida normal luego de permanecer hospitalizada por un grave incidente de automutilación. Aprende a digitar y comienza a salir con un muchacho de su secundaria llamado Peter. Un día se presenta en la oficina del excéntrico abogado E. Edward Grey (James Spader), quien la contrata como secretaria a pesar de su pobre habilidad para sociabilizar y su apariencia poco profesional.



Aunque al comienzo Grey se irrita profundamente por los errores de digitación de Lee, luego comienza a excitarle su comportamiento sumiso. Después de confrontarla acerca de las lesiones que se autoinfiere y ordenarle que deje de hacerlo, ambos entablan una relación sadomasoquista. Lee experimenta un despertar personal y sexual y termina enamorada de su jefe. Edward, sin embargo, se siente inseguro de sus sentimientos por Lee y muestra vergüenza y disgusto por sus propios hábitos sexuales. Tras un encuentro íntimo en su oficina, él la despide.
Peter pronto le propone matrimonio a Lee, quien, a regañadientes, acepta. No obstante, mientras se prueba su vestido de novia, sale corriendo hacia la oficina de Edward, donde le declara su amor. Edward, todavía inseguro de su relación, pone a prueba a Lee ordenándole que se siente en su silla sin mover sus manos del escritorio ni sus pies del piso hasta que él regrese. Lee obedece. Los días pasan mientras Peter, su familia y varios conocidos la visitan con el objetivo de disuadirla o animarla. Después de tres días, Edward vuelve a la oficina y lleva a Lee a su departamento, donde la baña y la cuida. Eventualmente se casan y continúan felices con su relación de dominación y sumisión.

Reparto

James Spader.
James Spader como E. Edward Grey.
Maggie Gyllenhaal como Lee Holloway.
Jeremy Davies como Peter.
Lesley Ann Warren como Joan Holloway.
Stephen McHattie como Burt Holloway.
Jessica Tuck como Tricia O'Connor.
Oz Perkins como Jonathan.
Amy Locane como la hermana de Lee.
Patrick Bauchau como el Dr. Twardon.  

Capturas

 



Format                                   : AVI
Format/Info                              : Audio Video Interleave
File size                                : 1.24 GiB
Duration                                 : 1h 51mn
Overall bit rate                         : 1 593 Kbps
Writing application                      : VirtualDubMod 1.5.10.2 (build 2540/release)
Writing library                          : VirtualDubMod build 2540/release

Video
ID                                       : 0
Format                                   : MPEG-4 Visual
Format profile                           : Advanced [email protected]
Format settings, BVOP                    : 1
Format settings, QPel                    : No
Format settings, GMC                     : No warppoints
Format settings, Matrix                  : Custom
Codec ID                                 : XVID
Codec ID/Hint                            : XviD
Duration                                 : 1h 51mn
Bit rate                                 : 1 254 Kbps
Width                                    : 640 pixels
Height                                   : 480 pixels
Display aspect ratio                     : 4:3
Frame rate                               : 23.976 fps
Color space                              : YUV
Chroma subsampling                       : 4:2:0
Bit depth                                : 8 bits
Scan type                                : Progressive
Compression mode                         : Lossy
Bits/(Pixel*Frame)                       : 0.170
Stream size                              : 996 MiB (79%)
Writing library                          : XviD 64

Audio #1
ID                                       : 1
Format                                   : MPEG Audio
Format version                           : Version 1
Format profile                           : Layer 3
Mode                                     : Joint stereo
Mode extension                           : MS Stereo
Codec ID                                 : 55
Codec ID/Hint                            : MP3
Duration                                 : 1h 51mn
Bit rate mode                            : Constant
Bit rate                                 : 128 Kbps
Channel count                            : 2 channels
Sampling rate                            : 44.1 KHz
Compression mode                         : Lossy
Delay relative to video                  : 11ms
Stream size                              : 102 MiB (8%)
Alignment                                : Split accross interleaves
Interleave, duration                     : 42 ms (1.00 video frame)
Interleave, preload duration             : 500 ms

Audio #2
ID                                       : 2
Format                                   : MPEG Audio
Format version                           : Version 1
Format profile                           : Layer 3
Mode                                     : Joint stereo
Mode extension                           : MS Stereo
Codec ID                                 : 55
Codec ID/Hint                            : MP3
Duration                                 : 1h 51mn
Bit rate mode                            : Constant
Bit rate                                 : 96.0 Kbps
Channel count                            : 2 channels
Sampling rate                            : 32.0 KHz
Compression mode                         : Lossy
Stream size                              : 76.3 MiB (6%)
Alignment                                : Aligned on interleaves
Interleave, duration                     : 42 ms (1.00 video frame)
Interleave, preload duration             : 504 ms
Writing library                          : LAME3.98.4

Audio #3
ID                                       : 3
Format                                   : MPEG Audio
Format version                           : Version 1
Format profile                           : Layer 3
Mode                                     : Joint stereo
Codec ID                                 : 55
Codec ID/Hint                            : MP3
Duration                                 : 1h 51mn
Bit rate mode                            : Constant
Bit rate                                 : 96.0 Kbps
Channel count                            : 2 channels
Sampling rate                            : 32.0 KHz
Compression mode                         : Lossy
Stream size                              : 76.3 MiB (6%)
Alignment                                : Aligned on interleaves
Interleave, duration                     : 42 ms (1.00 video frame)
Interleave, preload duration             : 504 ms


El primer audio es latino, el segundo es castellano, y el tercero es ingles
Descarga putlocker


Eso es todo 
La secretaria Secretary2002 Dvdrip trial latino+18
31 Puntos Score: 7.8/10
Visitas: 9467 Favoritos: 8
Ver los usuarios que votaron...
15 Comentarios La secretaria Secretary2002 Dvdrip trial latino+18
ya tengo esta pelicula,  pero por ser en audio latino  lo descargo,  muchas gracias  por compartir  
mas tarde te dejare  tus merecidos puntos  
Nos has contado toda la peli jajaj te pasastes..
buena peli pero solo con leer ya la vi:baba:
+10 excelente para estos dias de frio...
   
Excelente.Gracias por compartirla
gracias porel aporte
muchas gracias
buen aporte

gracias
amigo podrias subir solo el audio latino lo necesito
@rennyp ahora no tengo tiempo si me esperas al domingo te lo subo
ok gracias cuando puedas  
ok muchas gracias
@juanw200 muchas gracias por el audio
Por que al hacer click en ver links de descarga no me aparece nada?
Para dejar un comentario Registrate! o.. eres ya usuario? Accede!