Heavy Metal 1981 Subtitulada



Heavy Metal es una película canadiense de animación para adultos de 1981, creada por Gerald Potterton y producida por Len Mogel e Ivan Reitman, basándose en las historietas de la revista homónima. Existe una segunda parte titulada Heavy Metal 2000, y luego una secuela de esta en forma de videojuego llamado Heavy Metal F.A.K.K.2.

Descripción


La película mantiene una estructura antológica, al estar compuesta de diversas historias unidas por un nexo común: La pervivencia del mal y su extensión por el universo.

Muestra el sentido humorístico de la publicación original.

Banda sonora[editar 

La banda sonora fue lanzada en formato LP doble en 1981 por Epic Records, pero por razones legales no fue editada en CD hasta 1995. El álbum alcanzó el puesto número 12 en el Billboard 200 chart. Blue Öyster Cult escribió y grabó una canción llamada "Vengeance (The Pact)" para la película, pero los productores se negaron a utilizar el tema; mientras que "Veteran of the Psychic Wars" fue usado en su lugar. Aunque utilizadas en la película como música incidental, las canciones "Through Being Cool" de Devo y "E5150" de Black Sabbath no fueron incluidas en el álbum, siendo elegidas "Working in a Coal Mine" (Devo) y "The Mob Rules" (Black Sabbath) respectivamente.

Las dificultades legales respecto a los derechos de algunas canciones de la película, retrasaron también su lanzamiento en video. El uso de algunas canciones se limitó únicamente a la versión teatral y de la banda sonora, pero no a versiones de video. No fue sino hasta 1996 que se produjo un lanzamiento oficial en VHS cuando Kevin Eastman, que había comprado los derechos de publicación de la revista "Heavy Metal" en 1992, y anteriormente había contribuido con la publicación, llegó a un acuerdo con los titulares de los derechos de autor.




Lista de temas

"Heavy Metal" (Original Version) - Sammy Hagar 3:50

"Heartbeat" - Riggs 4:20

"Working in a Coal Mine" - Devo 2:48

"Veteran of the Psychic Wars" - Blue Öyster Cult 4:48

"Reach Out" - Cheap Trick 3:35

"Heavy Metal (Takin' a Ride)" - Don Felder 5:00

"True Companion" - Donald Fagen 5:02

"Crazy (A Suitable Case for Treatment)" - Nazareth 3:24

"Radar Rider" - Riggs 2:40

"Open Arms" - Journey 3:20

"Queen Bee" - Grand Funk Railroad 3:11

"I Must Be Dreamin'" - Cheap Trick 5:37

"The Mob Rules" (Alternate Version) - Black Sabbath 2:43

"All of You" - Don Felder 4:18

"Prefabricated" - Trust 2:59

"Blue Lamp" - Stevie Nicks 3:48





Format                                   : Matroska
Format version                           : Version 2
File size                                : 703 MiB
Duration                                 : 1h 30mn
Overall bit rate                         : 1 088 Kbps
Writing application                      : Lavf51.12.1
Writing library                          : Lavf51.12.1

Video
ID                                       : 1
Format                                   : AVC
Format/Info                              : Advanced Video Codec
Format profile                           : [email protected]
Format settings, CABAC                   : No
Format settings, ReFrames                : 2 frames
Format settings, GOP                     : M=1, N=12
Codec ID                                 : V_MPEG4/ISO/AVC
Duration                                 : 1h 30mn
Bit rate                                 : 875 Kbps
Width                                    : 852 pixels
Original width                           : 848 pixels
Height                                   : 480 pixels
Display aspect ratio                     : 4:3
Frame rate mode                          : Constant
Frame rate                               : 29.970 fps
Standard                                 : NTSC
Color space                              : YUV
Chroma subsampling                       : 4:2:0
Bit depth                                : 8 bits
Scan type                                : Progressive
Bits/(Pixel*Frame)                       : 0.071
Stream size                              : 565 MiB (80%)
Default                                  : Yes
Forced                                   : No
Color primaries                          : BT.601 NTSC
Transfer characteristics                 : BT.601
Matrix coefficients                      : BT.601

Audio
ID                                       : 2
Format                                   : MPEG Audio
Format version                           : Version 1
Format profile                           : Layer 2
Codec ID                                 : A_MPEG/L2
Codec ID/Hint                            : MP2
Duration                                 : 1h 30mn
Bit rate mode                            : Constant
Bit rate                                 : 192 Kbps
Channel count                            : 2 channels
Sampling rate                            : 44.1 KHz
Compression mode                         : Lossy
Stream size                              : 124 MiB (18%)
Default                                  : Yes
Forced                                   : No














Hola

http://www.identi.li/index.php?topic=263840

Te invito a pasar a mi humilde y olvidado post de esta fantastica serie Metal Evolution Series sobre origen del metal y sus distintas ramificaciones  SERIE COMPLETA TOTALMENTE SUBTITULADA EN EL MEJOR FORMATO MKV













Heavy Metal 1981 Subtitulada
20 Puntos Score: 10/10
Visitas: 1488 Favoritos: 7
Ver los usuarios que votaron...
7 Comentarios Heavy Metal 1981 Subtitulada
heavy metal is the law!!!
Hace rato la buscaba... Gracias  
Buen aporte  
Gracias por la Pelicula
Para dejar un comentario Registrate! o.. eres ya usuario? Accede!