Led Zeppelin The Song remains the same



The Song Remains the Same es una película del concierto que ofrece la banda de rock Inglés Led Zeppelin . El rodaje tuvo lugar durante tres noches de conciertos en el Madison Square Garden en la ciudad de Nueva York , con imágenes rodadas adicional en Shepperton Studios debido al trabajo inaceptable de camarógrafos en los conciertos. La película se estrenó el 20 de octubre de 1976, en el Cinema I en Nueva York y en Warner West End Cinema en Londres dos semanas después. [ 1 ] Esto fue acompañado de una banda sonora del mismo nombre . El DVD de la película fue estrenada el 31 de diciembre de 1999.

Los materiales promocionales declarado que la película era "de manera especial de la banda de dar a sus millones de amigos lo que habían estado pidiendo a gritos -. Un recorrido personal y privada de Led Zeppelin Por primera vez, el mundo tiene un asiento de primera fila en Led Zeppelin."







Format                                   : AVI

Format/Info                              : Audio Video Interleave

Format profile                           : OpenDML

File size                                : 1.09 GiB

Duration                                 : 2h 11mn

Overall bit rate                         : 1 188 Kbps

Writing application                      : Lavf51.12.1


Video

ID                                       : 0

Format                                   : AVC

Format/Info                              : Advanced Video Codec

Format profile                           : [email protected]

Format settings, CABAC                   : No

Format settings, ReFrames                : 2 frames

Format settings, GOP                     : M=1, N=12

Codec ID                                 : H264

Duration                                 : 2h 11mn

Bit rate                                 : 895 Kbps

Width                                    : 720 pixels

Height                                   : 576 pixels

Display aspect ratio                     : 4:3

Frame rate                               : 25.000 fps

Standard                                 : PAL

Color space                              : YUV

Chroma subsampling                       : 4:2:0

Bit depth                                : 8 bits

Scan type                                : Progressive

Bits/(Pixel*Frame)                       : 0.086

Stream size                              : 841 MiB (75%)

Color primaries                          : BT.601 PAL

Transfer characteristics                 : BT.470 System B, BT.470 System G

Matrix coefficients                      : BT.601


Audio

ID                                       : 1

Format                                   : MPEG Audio

Format version                           : Version 1

Format profile                           : Layer 3

Mode                                     : Joint stereo

Codec ID                                 : 55

Codec ID/Hint                            : MP3

Duration                                 : 2h 11mn

Bit rate mode                            : Constant

Bit rate                                 : 32.0 Kbps

Channel count                            : 2 channels

Sampling rate                            : 44.1 KHz

Compression mode                         : Lossy

Stream size                              : 260 MiB (23%)

Alignment                                : Aligned on interleaves

Interleave, duration                     : 26 ms (0.65 video frame)

Writing library                          : LAMEULAME3.97










http://BillionUploads.com/go31h5bwjafm





Hola


Te invito a pasar a mi humilde y olvidado post de esta fantastica serie Metal Evolution Series sobre origen del metal y sus distintas ramificaciones  SERIE COMPLETA TOTALMENTE SUBTITULADA EN EL MEJOR FORMATO MKV







 


Led Zeppelin The Song remains the same
30 Puntos Score: 10/10
Visitas: 1248 Favoritos: 1
Ver los usuarios que votaron...
8 Comentarios Led Zeppelin The Song remains the same
me lo llevo gracias x compartir iradeth
@Kanda_M
Cita Kanda_M: Mostrar
iradeth ? no entiendo el chiste bueno gracias por pasar
Buenazo , gracias man  

Pd : que es iradeth
Gracias, lo tengo pero con los subs aoarte y es un gorro.
 
Para dejar un comentario Registrate! o.. eres ya usuario? Accede!