Empire (2002) imperio dvdrip latino john leguizamo

Saludos gente de identi aqui les comparto esta pelicula que vi hace ya varios años cuando tenia directv pirata con todos los canales abiertos:baba:



   Víctor Rosa (John Leguizamo), un joven y carismático gangster latino para el  el dinero lo puede todo y que se jacta de ser un joven empresario según el modelo de Rockefeller, Carnagier o Gates, vive del éxito del negocio de los "fármacos de la calle", un imperio construido a partir de una mezcla especial de heroína a la que denomina "EMPIRE". La bella prometida de Víctor, Carmen (Delilah Cotto), cursa estudios en la universidad, donde hace amistad con otra de las estudiantes, Trish (Denise Richards). Cuando Trish presenta a Carmen y Víctor a su novio, inversionsita en Wall Street y consejero financiero Jack (Peter Sargaard) en el transcurso de una selecta fiesta en un elegante ático, los dos jóvenes descubren que tienen muchas cosas en común. Cuando Jack le ofrece a Víctor participar en sus transacciones bursátiles, éste lo interpreta inmediatamente como una posible salida de la violencia callejera, una vía para lograr el sueño americano y escaparse de su pasado criminal y el dinero fácil e ilegal de las violentas calles del Bronx, la última una oportunidad para entrar en el paraíso de los negocios legales, donde le espera el dinero limpio y el estilo de vida sofisticado del Soho. Pero mientras intenta comprar su salida, Víctor se da cuenta de que las viejas ataduras no son tan fáciles de romper, y que el precio de entrar en la legalidad es muy superior a lo que jamás habría imaginado. Ahora dos mundos chocan.




John Leguizamo
Victor Rosa



Fat Joe
Tito Severe



Denise Richards
Trish

Capturas








General
Complete name                            : D:Empire (John Leguizamo, Fat Joe, , Denise Richards)latino DvdripEmpire John Leguizamo Fat Joe  Denise Richards Dvdrip.avi
Format                                   : AVI
Format/Info                              : Audio Video Interleave
File size                                : 691 MiB
Duration                                 : 1h 39mn
Overall bit rate                         : 971 Kbps
Writing application                      : VirtualDubMod 1.5.10.2 (build 2540/release)
Writing library                          : VirtualDubMod build 2540/release

Video
ID                                       : 0
Format                                   : MPEG-4 Visual
Format settings, BVOP                    : No
Format settings, QPel                    : No
Format settings, GMC                     : No warppoints
Format settings, Matrix                  : Default (MPEG)
Codec ID                                 : XVID
Codec ID/Hint                            : XviD
Duration                                 : 1h 39mn
Bit rate                                 : 834 Kbps
Width                                    : 608 pixels
Height                                   : 256 pixels
Display aspect ratio                     : 2.40:1
Frame rate                               : 23.976 fps
Color space                              : YUV
Chroma subsampling                       : 4:2:0
Bit depth                                : 8 bits
Scan type                                : Progressive
Compression mode                         : Lossy
Bits/(Pixel*Frame)                       : 0.223
Stream size                              : 593 MiB (86%)

Audio
ID                                       : 1
Format                                   : MPEG Audio
Format version                           : Version 1
Format profile                           : Layer 3
Mode                                     : Joint stereo
Mode extension                           : MS Stereo
Codec ID                                 : 55
Codec ID/Hint                            : MP3
Duration                                 : 1h 39mn
Bit rate mode                            : Constant
Bit rate                                 : 128 Kbps
Channel count                            : 2 channels
Sampling rate                            : 44.1 KHz
Compression mode                         : Lossy
Delay relative to video                  : 9ms
Stream size                              : 91.0 MiB (13%)
Alignment                                : Split accross interleaves
Interleave, duration                     : 42 ms (1.00 video frame)
Interleave, preload duration             : 500 ms
Writing library                          : LAMEªªªÀ'G½ü??á#¿


Empire (2002) imperio dvdrip latino john leguizamo
15 Puntos Score: 7.5/10
Visitas: 8586 Favoritos: 3
Ver los usuarios que votaron...
5 Comentarios Empire (2002) imperio dvdrip latino john leguizamo
Gracias brother, esta es muy buena pelicula, hace mucho que no la veo, aun soy novato y no tengo puntos, pero te lo agradesco...  
muchas gracias hace tiempo que la buscaba ahi te van +10  
Se te agradece...  
@ALEKZYOV @ricars83 @ngg86 de nada amigos disfruten la pelicula
amigo llegue tarde podrias resubir la estoy buscando desesperadamente saludosss
Para dejar un comentario Registrate! o.. eres ya usuario? Accede!