Documental The Doors When You're Strange (Bu)



  

When You're Strange es un documental sobre The Doors estrenado en 2009 y escrito y dirigido por Tom DiCillo.1
El teclista de la banda, Ray Manzarek, ha dicho que "esta será la verdadera historia de los Doors",1 2 e indicó que este documental será el "anti-Oliver Stone",1 2 refiriendose a la película de 1991 que Stone dirigió, y que atrajo críticas de parte del los fanáticos de The Doors y de gente cercana de Morrison por ciertas diferencias entre los hechos reales y el guion de Stone.
When You're Strange fue estrenada en el Festival de cine de Sundance el 17 de enero de 2009, donde recibió críticas favorables en general.3 Sin embargo, la narración grabada por el director Tom DiCillo fue para muchos un elemento que estropeó la calidad de la cinta por su monotonía. Johnny Depp fue contratado para volver a grabar la narración. La nueva versión debutó en el Festival de cine de Los Angeles en junio de 2009.4 La versión final del documental también fue proyectada en el Festival de cine de Londres en octubre del mismo año. Fue estrenado en los cines en abril de 2010 junto a un álbum del soundtrack, meses más tarde fue editado en formato Blu-ray y DVD. La película también fue estrenada en Francia, donde recibió excelentes críticas.5
El guitarrista Robbie Krieger cree que este documental es un retrato más acertado de Morrison que la película biográfica de 1991, comentó: "Creo que cuando ves la película de Oliver Stone -me impresionó lo bien que lo hizo Val Kilmer- el problema es que el guion era medio estúpido. En realidad no capturó en absoluto cómo era Jim. Creo que ésta te da una mucho mejor idea de como funcionaba su mente".6 En definitiva, Krieger se sintió "muy feliz" de como resultó el documental, elogiando particularmente el trabajo de edición. Los miembros sobrevivientes de la banda decidieron no involucrarse demasiado en el proyecto para tratar de conseguir el justo balance neutral que cualquiera conseguiría"




General
Strange.avi
Format                                   : AVI
Format/Info                              : Audio Video Interleave
File size                                : 812 MiB
Duration                                 : 1h 25mn
Overall bit rate                         : 1 329 Kbps
Writing application                      : VirtualDubMod 1.5.10.2 (build 2542/release)
Writing library                          : VirtualDubMod build 2542/release

Video
ID                                       : 0
Format                                   : MPEG-4 Visual
Format profile                           : Advanced [email protected]
Format settings, BVOP                    : 1
Format settings, QPel                    : No
Format settings, GMC                     : No warppoints
Format settings, Matrix                  : Default (H.263)
Muxing mode                              : Packed bitstream
Codec ID                                 : XVID
Codec ID/Hint                            : XviD
Duration                                 : 1h 25mn
Bit rate                                 : 1 190 Kbps
Width                                    : 640 pixels
Height                                   : 360 pixels
Display aspect ratio                     : 16:9
Frame rate                               : 29.970 fps
Color space                              : YUV
Chroma subsampling                       : 4:2:0
Bit depth                                : 8 bits
Scan type                                : Progressive
Compression mode                         : Lossy
Bits/(Pixel*Frame)                       : 0.172
Stream size                              : 727 MiB (89%)


Audio
ID                                       : 1
Format                                   : MPEG Audio
Format version                           : Version 1
Format profile                           : Layer 3
Mode                                     : Joint stereo
Mode extension                           : MS Stereo
Codec ID                                 : 55
Codec ID/Hint                            : MP3
Duration                                 : 1h 25mn
Bit rate mode                            : Constant
Bit rate                                 : 128 Kbps
Channel count                            : 2 channels
Sampling rate                            : 44.1 KHz
Compression mode                         : Lossy
Stream size                              : 78.2 MiB (10%)
Alignment                                : Split accross interleaves
Interleave, duration                     : 33 ms (1.00 video frame)
Interleave, preload duration             : 500 ms














Hola
http://www.identi.li/index.php?topic=263840
Te invito a pasar a mi humilde y olvidado post de esta fantastica serie Metal Evolution Series sobre origen del metal y sus distintas ramificaciones  SERIE COMPLETA TOTALMENTE SUBTITULADA EN EL MEJOR FORMATO MKV








Documental The Doors When You're Strange (Bu)
30 Puntos Score: 10/10
Visitas: 1605 Favoritos: 5
Ver los usuarios que votaron...
9 Comentarios Documental The Doors When You're Strange (Bu)
Este post no tiene comentarios. Sea el primero!

Mega excelente aportazo, van Diego
Oye no lo puedo descargar, ni por los gestores de descargas, ni directamente

@Kaliman76
Cita Kaliman76: Mostrar

Hazlo de este modo
Muy pero muy buen aporte !!

@detroid18
Cita detroid18: Mostrar
Buen aporte  
amigo no lo puedo descargar por ninguna forma ya que sale que si fuera un video online
@sergio_vm  con jdwoloader antes de que lo compruebe lo agregas porque te va a decir que no esta el archivo.
y debes configurar en conx. max = 1 descargas max = 1.
con esto descargaras.
@NmLCygni el link estacaido  
Para dejar un comentario Registrate! o.. eres ya usuario? Accede!