Guns N' Roses Biography Channel (Bu)







Format/Info                              : Audio Video Interleave

File size                                : 395 MiB

Duration                                 : 44mn 58s

Overall bit rate                         : 1 227 Kbps

Writing application                      : MEncoder SVN-r33883(20110719-gcc4.5.2)

Writing library                          : MPlayer


Video

ID                                       : 0

Format                                   : MPEG-4 Visual

Format profile                           : Advanced [email protected]

Format settings, BVOP                    : 2

Format settings, QPel                    : No

Format settings, GMC                     : No warppoints

Format settings, Matrix                  : Default (H.263)

Codec ID                                 : XVID

Codec ID/Hint                            : XviD

Duration                                 : 44mn 58s

Bit rate                                 : 1 022 Kbps

Width                                    : 856 pixels

Height                                   : 480 pixels

Display aspect ratio                     : 16:9

Frame rate                               : 29.970 fps

Color space                              : YUV

Chroma subsampling                       : 4:2:0

Bit depth                                : 8 bits

Scan type                                : Progressive

Compression mode                         : Lossy

Bits/(Pixel*Frame)                       : 0.083

Stream size                              : 329 MiB (83%)



Audio

ID                                       : 1

Format                                   : MPEG Audio

Format version                           : Version 1

Format profile                           : Layer 3

Mode                                     : Joint stereo

Codec ID                                 : 55

Codec ID/Hint                            : MP3

Duration                                 : 44mn 58s

Bit rate mode                            : Constant

Bit rate                                 : 192 Kbps

Channel count                            : 2 channels

Sampling rate                            : 44.1 KHz

Compression mode                         : Lossy

Delay relative to video                  : 33ms

Stream size                              : 61.8 MiB (16%)

Alignment                                : Aligned on interleaves

Interleave, duration                     : 26 ms (0.78 video frame)

Interleave, preload duration             : 522 ms

Writing library                          : LAME3.98.4









http://billionuploads.com/vyl2wgigpznz 





Hola
http://www.identi.li/index.php?topic=263840
Te invito a pasar a mi humilde y olvidado post de esta fantastica serie Metal Evolution Series sobre origen del metal y sus distintas ramificaciones  SERIE COMPLETA TOTALMENTE SUBTITULADA EN EL MEJOR FORMATO MKV







Guns N' Roses Biography Channel (Bu)
45 Puntos Score: 9/10
Visitas: 1316 Favoritos: 4
Ver los usuarios que votaron...
4 Comentarios Guns N' Roses Biography Channel (Bu)
gran aporte men gracias, una pregunta tiene sub,,      
Para dejar un comentario Registrate! o.. eres ya usuario? Accede!