Oops.. Este post tiene los enlaces eliminados!

Identi revisa las denuncias de los usuarios en busca de enlaces eliminados que no dejan descargar los archivos, este mensaje te informa que este post que estas viendo tiene los enlaces eliminados.

Usa el Buscador

Por favor, te recomendamos que uses el buscador para encontrar más alternativas.

Arch Enemy Live at metal hardcore festival (Bu)

  • Categoría: Reciclaje
  • Publicado hace más de 3 años



 

ARCH ENEMY - METAL Y HARDCORE FESTIVAL 2002

VIVIR EN METAL Y HARDCORE FESTIVAL NEW ENGLAND 04.05.2002






Format                                   : AVI

Format/Info                              : Audio Video Interleave

File size                                : 494 MiB

Duration                                 : 45mn 52s

Overall bit rate                         : 1 506 Kbps

Writing application                      : Lavf51.12.1


Video

ID                                       : 0

Format                                   : AVC

Format/Info                              : Advanced Video Codec

Format profile                           : [email protected]

Format settings, CABAC                   : No

Format settings, ReFrames                : 2 frames

Format settings, GOP                     : M=1, N=12

Codec ID                                 : H264

Duration                                 : 45mn 52s

Bit rate                                 : 1 174 Kbps

Width                                    : 720 pixels

Height                                   : 540 pixels

Display aspect ratio                     : 4:3

Frame rate                               : 23.976 fps

Standard                                 : NTSC

Color space                              : YUV

Chroma subsampling                       : 4:2:0

Bit depth                                : 8 bits

Scan type                                : Progressive

Bits/(Pixel*Frame)                       : 0.126

Stream size                              : 385 MiB (78%)

Color primaries                          : BT.601 NTSC

Transfer characteristics                 : BT.601

Matrix coefficients                      : BT.601


Audio

ID                                       : 1

Format                                   : MPEG Audio

Format version                           : Version 1

Format profile                           : Layer 3

Mode                                     : Joint stereo

Codec ID                                 : 55

Codec ID/Hint                            : MP3

Duration                                 : 45mn 52s

Bit rate mode                            : Constant

Bit rate                                 : 320 Kbps

Channel count                            : 2 channels

Sampling rate                            : 44.1 KHz

Compression mode                         : Lossy

Stream size                              : 105 MiB (21%)

Alignment                                : Aligned on interleaves

Interleave, duration                     : 26 ms (0.63 video frame)

Interleave, preload duration             : 26 ms

Writing library                          : LAME3.97










http://BillionUploads.com/ucdl92zkxqjz





Hola
http://www.identi.li/index.php?topic=263840
Te invito a pasar a mi humilde y olvidado post de esta fantastica serie Metal Evolution Series sobre origen del metal y sus distintas ramificaciones  SERIE COMPLETA TOTALMENTE SUBTITULADA EN EL MEJOR FORMATO MKV






Arch Enemy Live at metal hardcore festival (Bu)
20 Puntos Score: 10/10
Visitas: 971 Favoritos: 1
Ver los usuarios que votaron...
2 Comentarios Arch Enemy Live at metal hardcore festival (Bu)
Larga vida a lo Hermanos Amott m/
Para dejar un comentario Registrate! o.. eres ya usuario? Accede!