Kansas - Point Of Know Return (1977)(Flac)(Mg)











Información:


Formato: Flac (image + .cue) + Log

Año: 1977 (remasterizado en 2011)

Covers: En el rar



Lista de canciones:


01. Point Of Know Return

02. Paradox

03. The Spider

04. Portrait (He Knew)

05. Closet Chronicles

06. Lightning's Hand

07. Dust In The Wind

08. Sparks Of The Tempest

09. Nobody's Home

10. Hopelessly Human

11. Sparks Of The Tempest (Live)

12. Portrait (He Knew) (Remix Version)





Log:

Exact Audio Copy V1.0 beta 2 from 29. April 2011

EAC extraction logfile from 21. September 2011, 18:02

Kansas / Point Of Know Return

Used drive  : HL-DT-STDVDRAM GSA-H60N   Adapter: 2  ID: 0

Read mode               : Secure
Utilize accurate stream : Yes
Defeat audio cache      : Yes
Make use of C2 pointers : No

Read offset correction                      : 667
Overread into Lead-In and Lead-Out          : No
Fill up missing offset samples with silence : Yes
Delete leading and trailing silent blocks   : No
Null samples used in CRC calculations       : Yes
Used interface                              : Native Win32 interface for Win NT & 2000

Used output format : Internal WAV Routines
Sample format      : 44.100 Hz; 16 Bit; Stereo


TOC of the extracted CD

     Track |   Start  |  Length  | Start sector | End sector 
    ---------------------------------------------------------
        1  |  0:00.00 |  3:13.59 |         0    |    14533   
        2  |  3:13.59 |  3:50.53 |     14534    |    31836   
        3  |  7:04.37 |  2:05.15 |     31837    |    41226   
        4  |  9:09.52 |  4:37.30 |     41227    |    62031   
        5  | 13:47.07 |  6:31.36 |     62032    |    91392   
        6  | 20:18.43 |  4:24.19 |     91393    |   111211   
        7  | 24:42.62 |  3:28.62 |    111212    |   126873   
        8  | 28:11.49 |  4:19.03 |    126874    |   146301   
        9  | 32:30.52 |  4:39.65 |    146302    |   167291   
       10  | 37:10.42 |  7:18.03 |    167292    |   200144   
       11  | 44:28.45 |  5:18.03 |    200145    |   223997   
       12  | 49:46.48 |  4:50.54 |    223998    |   245801   


Range status and errors

Selected range

     Filename C:Documents and SettingsAdmin??????? ????Lossless Galaxy Rip by ALLexxessKansas1977 Point Of Know Return (Epi? - Sony Music Japan Mini LP Blu-spec CD 2011)Kansas - Point Of Know Return.wav

     Peak level 100.0 %
     Extraction speed 6.1 X
     Range quality 100.0 %
     Test CRC 1275956E
     Copy CRC 1275956E
     Copy OK

No errors occurred

 
AccurateRip summary
 
Track  1  not present in database
Track  2  not present in database
Track  3  not present in database
Track  4  not present in database
Track  5  not present in database
Track  6  not present in database
Track  7  not present in database
Track  8  not present in database
Track  9  not present in database
Track 10  not present in database
Track 11  not present in database
Track 12  not present in database
 
None of the tracks are present in the AccurateRip database

End of status report

==== Log checksum 8F3DBBD15EEA8B43CF6B5158845F2081AD899FE9741DF2884B2999AAC18DA885 ====







Contraseña: ellocoboni




Kansas - Point Of Know Return (1977)(Flac)(Mg)
23 Puntos Score: 7.7/10
Visitas: 2782 Favoritos: 2
Ver los usuarios que votaron...
4 Comentarios Kansas - Point Of Know Return (1977)(Flac)(Mg)
disculpa amigo, como puedo hacer para separar las canciones y convertirlas en mp3, desde ya muchas gracias
@seth_23
Utiliza el Cuetools es el mejor programa para convertir las canciones al formato que quieras

http://www.cuetools.net/wiki/CUETools_Download
Para dejar un comentario Registrate! o.. eres ya usuario? Accede!