Como Conocí a Vuestra Madre [Temporada 8][14/24 HD

            Como Conocí a Vuestra Madre [Temporada 8][14/24][HD720p][AC3-Español]           
     FICHA


   FICHA TECNICA
General
Unique ID                                : 222215450167240545920431853386716887336 (0xA72D2392C4B4D4B2BA4F29CB484F3928)
Format                                   : Matroska
Format version                           : Version 2
File size                                : 512 MiB
Duration                                 : 20mn 13s
Overall bit rate mode                    : Variable
Overall bit rate                         : 3 539 Kbps
Encoded date                             : UTC 2013-09-04 20:54:39
Writing application                      : mkvmerge v4.0.0 ('The Stars were mine') built on Jun  7 2010 20:15:27
Writing library                          : libebml v1.0.0 + libmatroska v1.0.0

Video
ID                                       : 1
Format                                   : AVC
Format/Info                              : Advanced Video Codec
Format profile                           : [email protected]
Format settings, CABAC                   : Yes
Format settings, ReFrames                : 4 frames
Format settings, GOP                     : M=4, N=32
Codec ID                                 : V_MPEG4/ISO/AVC
Duration                                 : 20mn 13s
Bit rate mode                            : Variable
Bit rate                                 : 3 085 Kbps
Maximum bit rate                         : 20.0 Mbps
Width                                    : 1 280 pixels
Height                                   : 720 pixels
Display aspect ratio                     : 16:9
Frame rate mode                          : Constant
Frame rate                               : 50.000 fps
Color space                              : YUV
Chroma subsampling                       : 4:2:0
Bit depth                                : 8 bits
Scan type                                : Progressive
Bits/(Pixel*Frame)                       : 0.067
Stream size                              : 446 MiB (87%)
Title                                    : BY BENGALIES
Language                                 : Spanish
Default                                  : Yes
Forced                                   : No
Color primaries                          : BT.709
Transfer characteristics                 : BT.709
Matrix coefficients                      : BT.709

Audio
ID                                       : 2
Format                                   : AC-3
Format/Info                              : Audio Coding 3
Mode extension                           : CM (complete main)
Format settings, Endianness              : Big
Codec ID                                 : A_AC3
Duration                                 : 20mn 13s
Bit rate mode                            : Constant
Bit rate                                 : 384 Kbps
Channel(s)                               : 2 channels
Channel positions                        : Front: L R
Sampling rate                            : 48.0 KHz
Bit depth                                : 16 bits
Compression mode                         : Lossy
Stream size                              : 55.5 MiB (11%)
Title                                    : AC3 2.0
Language                                 : Spanish
Default                                  : Yes
Forced                                   : No
   TRAILER

        
   ENLACES
CCAVM 8X01 - https://mega.co.nz/#!lgNmjQqY!LqitxmV7pC7slIfoRX3QAwPnnpwIFTWgujHwHShr2hE
CCAVM 8X02 - https://mega.co.nz/#!d080iRCa!Ov31eyJw0-fKJy5Ky9WUkQCnuolyXHfQ_GklEcRypnM
CCAVM 8X03 - https://mega.co.nz/#!xkthCAgJ!A9d7nVKlL1ReRYYlwcfRmDs1_dxCiTsCMGFgDPijpds
CCAVM 8X04 - https://mega.co.nz/#!15chxIIQ!VMfBrE4Z6B10l_I-npZ0tkrW3TpwNyiOT3HeLeQvJhI
CCAVM 8X05 - https://mega.co.nz/#!89UwnARA!EUQ4yQjhAEoClUEvslIjxWfvc1RKqkkaId9vy6cjmZ8
CCAVM 8X06 - https://mega.co.nz/#!dxlUWLIA!R6HoVSogl_SakcywdMcZ1QY4JUB8r9fcpQ62uTpkhJ8
CCAVM 8X07 - https://mega.co.nz/#!g1MgxI4a!bbNnMTUGBLoIewUJ64XHTg0rQxBWywidPPtUl7cQhog
CCAVM 8X08 - https://mega.co.nz/#!x50BwDbb!WuSUfDDi0paxgdfxGXYfpEIB4IgLoBoy5xb9uDfs-tk
CCAVM 8X09 - https://mega.co.nz/#!MtFHgLaY!aFC_3nnXiS_TIsAtFOPfc1xqRLkooZRs9OZacjEClfw
CCAVM 8X10 - https://mega.co.nz/#!ps8UEKYD!UGjfeEUICj9X-45KcG_Z3VqDmBtYlHk8SAt8R2dSBWY
CCAVM 8X11 - https://mega.co.nz/#!ht8nRKIJ!W-yhlU92mZIgiKq9v7vZD0SkK11JlzDUbOx9cN-RI7w
CCAVM 8X12 - https://mega.co.nz/#!x5dRRbbB!ebqQgV2Ig_nkPtnzsfDixwupprIbQUHpsQNj9cCEZs0
CCAVM 8X13 - https://mega.co.nz/#!Iw1QWS5T!JlnuFmimVWdJypgfyTKJVhyQhXwKnRWZfkHHAcqpDms
CCAVM 8X14 - https://mega.co.nz/#!J9kDFKTC!M9t5xlRPw0GO_t9gGiYuBgf498kjp0Rm_7VirVqqmqE
Como Conocí a Vuestra Madre [Temporada 8][14/24 HD
10 Puntos Score: 10/10
Visitas: 4729 Favoritos: 2
Ver los usuarios que votaron...
1 Comentarios Como Conocí a Vuestra Madre [Temporada 8][14/24 HD
gracias !!!!
queria saber si subiras los 10 cap que faltan de esa temporada.
Para dejar un comentario Registrate! o.. eres ya usuario? Accede!