Oops.. Este post tiene los enlaces eliminados!

Identi revisa las denuncias de los usuarios en busca de enlaces eliminados que no dejan descargar los archivos, este mensaje te informa que este post que estas viendo tiene los enlaces eliminados.

Usa el Buscador

Por favor, te recomendamos que uses el buscador para encontrar más alternativas.

Liquid Tension Experiment Live in La (Bu)

  • Categoría: Reciclaje
  • Publicado hace más de 3 años






General
Format                                   : AVI
Format/Info                              : Audio Video Interleave
File size                                : 692 MiB
Duration                                 : 2h 17mn
Overall bit rate                         : 701 Kbps

Video
ID                                       : 0
Format                                   : MPEG-4 Visual
Format settings, BVOP                    : 2
Format settings, QPel                    : No
Format settings, GMC                     : No warppoints
Format settings, Matrix                  : Default (H.263)
Muxing mode                              : Packed bitstream
Codec ID                                 : DX50
Codec ID/Hint                            : DivX 5
Duration                                 : 2h 17mn
Bit rate                                 : 500 Kbps
Width                                    : 640 pixels
Height                                   : 400 pixels
Display aspect ratio                     : 16:10
Frame rate                               : 23.976 fps
Color space                              : YUV
Chroma subsampling                       : 4:2:0
Bit depth                                : 8 bits
Scan type                                : Progressive
Compression mode                         : Lossy
Bits/(Pixel*Frame)                       : 0.081
Stream size                              : 493 MiB (71%)
Title                                    : Video 
Writing library                          : DivX 3013

Audio
ID                                       : 1
Format                                   : MPEG Audio
Format version                           : Version 1
Format profile                           : Layer 3
Codec ID                                 : 55
Codec ID/Hint                            : MP3
Duration                                 : 2h 17mn
Bit rate mode                            : Constant
Bit rate                                 : 192 Kbps
Channel count                            : 2 channels
Sampling rate                            : 44.1 KHz
Compression mode                         : Lossy
Stream size                              : 189 MiB (27%)
Alignment                                : Split accross interleaves
Interleave, duration                     : 42 ms (1.00 video frame)
Interleave, preload duration             : 500 ms
Title                                    : Audio 












Hola
http://www.identi.li/index.php?topic=263840



Te invito a pasar a mi humilde y olvidado post de esta fantastica serie Metal Evolution Series sobre origen del metal y sus distintas ramificaciones  SERIE COMPLETA TOTALMENTE SUBTITULADA EN EL MEJOR FORMATO MKV












 
Liquid Tension Experiment Live in La (Bu)
10 Puntos Score: 10/10
Visitas: 637 Favoritos: 0
Ver los usuarios que votaron...
4 Comentarios Liquid Tension Experiment Live in La (Bu)
@vellanizar
Cita vellanizar: Mostrar
gracias crei nadie pasaria
@NmLCygni
Si ay gente  que solo descarga y no da las gracias    deber?
Para dejar un comentario Registrate! o.. eres ya usuario? Accede!