Oops.. Este post tiene los enlaces eliminados!

Identi revisa las denuncias de los usuarios en busca de enlaces eliminados que no dejan descargar los archivos, este mensaje te informa que este post que estas viendo tiene los enlaces eliminados.

Usa el Buscador

Por favor, te recomendamos que uses el buscador para encontrar más alternativas.

AC-DC Back In Black (1980) Flac (Mg)

  • Categoría: Reciclaje
  • Publicado hace más de 3 años













Información:


Formato: Flac (image + .cue)

Año: 1980 (remasterizado en 2003)

Covers: En el rar



Lista de canciones:


01. Hells Bells

02. Shoot To Thrill

03. What Do You Do For Money Honey

04. Givin The Dog A Bone

05. Let Me Put My Love Into You

06. Back In Black

07. You Shook Me All Night Long

08. Have A Drink On Me

09. Shake A Leg

10. Rock And Roll Ain?t Noise Pollution





Log:

Exact Audio Copy V1.0 beta 3 from 29. August 2011

EAC extraction logfile from 10. May 2012, 22:02

AC/DC / Back In Black (2003, 510765 2)

Used drive  : PIONEER DVD-RW  DVR-219L   Adapter: 1  ID: 0

Read mode               : Secure
Utilize accurate stream : Yes
Defeat audio cache      : Yes
Make use of C2 pointers : No

Read offset correction                      : 6
Overread into Lead-In and Lead-Out          : No
Fill up missing offset samples with silence : Yes
Delete leading and trailing silent blocks   : No
Null samples used in CRC calculations       : Yes
Used interface                              : Native Win32 interface for Win NT & 2000

Used output format : Internal WAV Routines
Sample format      : 44.100 Hz; 16 Bit; Stereo


TOC of the extracted CD

     Track |   Start  |  Length  | Start sector | End sector 
    ---------------------------------------------------------
        1  |  0:00.00 |  5:12.30 |         0    |    23429   
        2  |  5:12.30 |  5:17.45 |     23430    |    47249   
        3  | 10:30.00 |  3:35.17 |     47250    |    63391   
        4  | 14:05.17 |  3:31.70 |     63392    |    79286   
        5  | 17:37.12 |  4:15.48 |     79287    |    98459   
        6  | 21:52.60 |  4:15.22 |     98460    |   117606   
        7  | 26:08.07 |  3:30.15 |    117607    |   133371   
        8  | 29:38.22 |  3:58.48 |    133372    |   151269   
        9  | 33:36.70 |  4:05.37 |    151270    |   169681   
       10  | 37:42.32 |  4:26.03 |    169682    |   189634   


Range status and errors

Selected range

     Filename D:.www.AvaxHome.ruACDC - Back In Black (2003, 510765 2).wav

     Peak level 100.0 %
     Extraction speed 6.6 X
     Range quality 100.0 %
     Test CRC 96D15CE9
     Copy CRC 96D15CE9
     Copy OK

No errors occurred

 
AccurateRip summary
 
Track  1  accurately ripped (confidence 77)  [645E19BD]  (AR v2)
Track  2  accurately ripped (confidence 74) C333F083]  (AR v2)
Track  5  accurately ripped (confidence 74) 38541254]  (AR v2)
Track  8  accurately ripped (confidence 74) D6564B57]  (AR v2)
 
All tracks accurately ripped

End of status report

---- CUETools DB Plugin V2.1.3

[CTDB TOCID: LVw4nCl8lA7sXC9qSI2ySvfaJ5A-] found, Submit result: LVw4nCl8lA7sXC9qSI2ySvfaJ5A- has been confirmed
[73c40615] (388/390) Accurately ripped
[7f32c4e5] (001/390) No match
[4cb96860] (001/390) No match


==== Log checksum 4CD58B5254A2A301A9EB2399E33427655A221CB4DC15E46E7A9BF300844F332D ====











AC-DC Back In Black (1980) Flac (Mg)
15 Puntos Score: 7.5/10
Visitas: 755 Favoritos: 0
Ver los usuarios que votaron...
4 Comentarios AC-DC Back In Black (1980) Flac (Mg)
Discaso, recomendadisimo
@R0BERTIT0
Gracias por pasar y por los puntos amigo
Excelente!!! Gracias
Para dejar un comentario Registrate! o.. eres ya usuario? Accede!