Joya Scorpions World Wide Live (BU)










Format                                   : AVI
Format/Info                              : Audio Video Interleave
File size                                : 700 MiB
Duration                                 : 58mn 8s
Overall bit rate mode                    : Variable
Overall bit rate                         : 1 682 Kbps
Writing application                      : VirtualDubMod 1.5.4.1 (build 2178/release)
Writing library                          : VirtualDubMod build 2178/release

Video
ID                                       : 0
Format                                   : MPEG-4 Visual
Format profile                           : Advanced [email protected]
Format settings, BVOP                    : 1
Format settings, QPel                    : No
Format settings, GMC                     : No warppoints
Format settings, Matrix                  : Custom
Codec ID                                 : XVID
Codec ID/Hint                            : XviD
Duration                                 : 58mn 8s
Bit rate                                 : 1 536 Kbps
Width                                    : 720 pixels
Height                                   : 544 pixels
Display aspect ratio                     : 4:3
Frame rate                               : 23.976 fps
Color space                              : YUV
Chroma subsampling                       : 4:2:0
Bit depth                                : 8 bits
Scan type                                : Progressive
Compression mode                         : Lossy
Bits/(Pixel*Frame)                       : 0.164
Stream size                              : 639 MiB (91%)


Audio
ID                                       : 1
Format                                   : MPEG Audio
Format version                           : Version 1
Format profile                           : Layer 3
Mode                                     : Joint stereo
Mode extension                           : MS Stereo
Codec ID                                 : 55
Codec ID/Hint                            : MP3
Duration                                 : 58mn 8s
Bit rate mode                            : Variable
Bit rate                                 : 133 Kbps
Nominal bit rate                         : 144 Kbps
Channel count                            : 2 channels
Sampling rate                            : 48.0 KHz
Compression mode                         : Lossy
Stream size                              : 55.4 MiB (8%)
Alignment                                : Aligned on interleaves
Interleave, duration                     : 24 ms (0.58 video frame)
Interleave, preload duration             : 536 ms
Writing library                          : LAME3.98r














Hola




Te invito a pasar a mi humilde y olvidado post de esta fantastica serie Metal Evolution Series sobre origen del metal y sus distintas ramificaciones  SERIE COMPLETA TOTALMENTE SUBTITULADA EN EL MEJOR FORMATO MKV

 









 

[/font][/size][/color]
Joya Scorpions World Wide Live (BU)
20 Puntos Score: 10/10
Visitas: 1875 Favoritos: 1
Ver los usuarios que votaron...
3 Comentarios Joya Scorpions World Wide Live (BU)
Grande Grupo, aunque tengo todos lo cd e dvd  se agradece el aporte y esfuerzo que has dedicado en compartir esta JOYA
MEGA please....
Para dejar un comentario Registrate! o.. eres ya usuario? Accede!