Mike Terrana The Rhythm Beast In Session 2008 (4S)





Mike Terrana - película Bestia Rhythm fue lanzado 04 de marzo 2008 por el estudio Ryko Distribution. Ahora se puede ver a Mike explorar el arte de los solos en compases impares combinados con polyrhythmic pirotecnia durante la reproducción a lo largo de este nuevo y explosivo DVD. Mike Terrana - Rhythm Bestia vídeo Este DVD muestra algunos de sus mejores trabajos como baterista. Mike Terrana - Rhythm película Bestia No hay trucos informáticos, sin cuantificación - sólo él y sus tambores en una sesión en vivo. Mike Terrana - Rhythm Bestia opinión Potencia batería en su forma más pura y primitiva ... como debe ser! Este es el único vídeo Mike Terrana.


Tracklist:

01. Detonator (04:00)

02. Spin Drifter (06:20)

03. Pleasure Cube (05:29)

04. Say What (04:53)

05. Sorcery (06:07)

06. Jungle Alley (06:21)

07. Print of Time (04:00)

08. One for the Road (04:30)






Format                           : Matroska

File size                        : 496 MiB

Duration                         : 42mn 29s

Overall bit rate                 : 1 631 Kbps

Writing application              : Lavf51.12.1

Writing library                  : Lavf51.12.1


Video

ID                               : 1

Format                           : AVC

Format/Info                      : Advanced Video Codec

Format profile                   : [email protected]

Format settings, CABAC           : No

Format settings, ReFrames        : 1 frame

Format settings, GOP             : M=1, N=12

Codec ID                         : V_MPEG4/ISO/AVC

Duration                         : 42mn 29s

Bit rate mode                    : Variable

Bit rate                         : 1 279 Kbps

Maximum bit rate                 : 1 875 Kbps

Width                            : 720 pixels

Height                           : 576 pixels

Display aspect ratio             : 5:4

Original display aspect ratio    : 1.278

Frame rate                       : 25.000 fps

Original frame rate              : 24.000 fps

Standard                         : PAL

Color space                      : YUV

Chroma subsampling               : 4:2:0

Bit depth                        : 8 bits

Scan type                        : Progressive

Bits/(Pixel*Frame)               : 0.123

Stream size                      : 389 MiB (78%)


Audio

ID                               : 2

Format                           : MPEG Audio

Format version                   : Version 1

Format profile                   : Layer 2

Codec ID                         : A_MPEG/L2

Codec ID/Hint                    : MP2

Duration                         : 42mn 29s

Bit rate mode                    : Constant

Bit rate                         : 320 Kbps

Channel(s)                       : 2 channels

Sampling rate                    : 44.1 KHz

Compression mode                 : Lossy

Stream size                      : 97.3 MiB (20%)






http://www.4shared.com/video/hp4FCWGq/terrana.html


Hola



Te invito a pasar a mi humilde y olvidado post de esta fantastica serie Metal Evolution Series sobre origen del metal y sus distintas ramificaciones  SERIE COMPLETA TOTALMENTE SUBTITULADA EN EL MEJOR FORMATO MKV


 










Mike Terrana The Rhythm Beast In Session 2008 (4S)
20 Puntos Score: 10/10
Visitas: 372 Favoritos: 0
Ver los usuarios que votaron...
1 Comentarios Mike Terrana The Rhythm Beast In Session 2008 (4S)
Muchas gracias  
Para dejar un comentario Registrate! o.. eres ya usuario? Accede!