Oops.. Este post tiene los enlaces eliminados!

Identi revisa las denuncias de los usuarios en busca de enlaces eliminados que no dejan descargar los archivos, este mensaje te informa que este post que estas viendo tiene los enlaces eliminados.

Usa el Buscador

Por favor, te recomendamos que uses el buscador para encontrar más alternativas.

Queen Live Killers (1979) Flac (Mg)

  • Categoría: Reciclaje
  • Publicado hace más de 3 años











Información:


Formato: Flac (image + .cue) + Log

Año: 1979 (1991)

Covers: En el rar



Lista de canciones:



CD 1

 

01. We Will Rock You

02. Let Me Entertain You

03. Death On Two Legs

04. Killer Queen

05. Bicycle Race

06. I'm In Love With My Car

07. Get Down, Make Love

08. You're My Best Friend

09. Now I'm Here

10. Dreamer's Ball

11. Love Of My Life

12. '39

13. Keep Yourself Alive





Log:

Exact Audio Copy V1.0 beta 3 from 29. August 2011

EAC extraction logfile from 28. June 2013, 23:19

Queen / Live Killers (CD 1)

Used drive  : TEAC    DV-W524GSB   Adapter: 2  ID: 1

Read mode               : Secure
Utilize accurate stream : Yes
Defeat audio cache      : Yes
Make use of C2 pointers : No

Read offset correction                      : 6
Overread into Lead-In and Lead-Out          : No
Fill up missing offset samples with silence : Yes
Delete leading and trailing silent blocks   : No
Null samples used in CRC calculations       : Yes
Used interface                              : Native Win32 interface for Win NT & 2000

Used output format              : User Defined Encoder
Selected bitrate                : 320 kBit/s
Quality                         : High
Add ID3 tag                     : No
Command line compressor         : C:Program FilesFLACflac.exe
Additional command line options : -V -8 -T "Date=%year%" -T "Genre=%genre%" %source%


TOC of the extracted CD

     Track |   Start  |  Length  | Start sector | End sector 
    ---------------------------------------------------------
        1  |  0:00.32 |  3:16.50 |        32    |    14781   
        2  |  3:17.07 |  3:16.60 |     14782    |    29541   
        3  |  6:33.67 |  3:33.58 |     29542    |    45574   
        4  | 10:07.50 |  1:57.65 |     45575    |    54414   
        5  | 12:05.40 |  1:29.40 |     54415    |    61129   
        6  | 13:35.05 |  2:01.32 |     61130    |    70236   
        7  | 15:36.37 |  4:31.05 |     70237    |    90566   
        8  | 20:07.42 |  2:10.40 |     90567    |   100356   
        9  | 22:18.07 |  8:42.48 |    100357    |   139554   
       10  | 31:00.55 |  3:42.10 |    139555    |   156214   
       11  | 34:42.65 |  4:59.25 |    156215    |   178664   
       12  | 39:42.15 |  3:26.50 |    178665    |   194164   
       13  | 43:08.65 |  4:00.20 |    194165    |   212184   


Range status and errors

Selected range

     Filename D:Queen (Hollywood Records)1979 Live KillersCD 1Queen - Live Killers (CD 1).wav

     Peak level 94.0 %
     Extraction speed 5.6 X
     Range quality 100.0 %
     Test CRC 46DD66B3
     Copy CRC 46DD66B3
     Copy OK

No errors occurred

 
AccurateRip summary
 
Track  1  accurately ripped (confidence 7) EA2E47EE]  (AR v2)
Track  4  accurately ripped (confidence 7) 27F6B946]  (AR v2)
Track  7  accurately ripped (confidence 7) F8A8CC11]  (AR v2)
Track 10  accurately ripped (confidence 7) D34AB2CD]  (AR v2)
Track 13  accurately ripped (confidence 7)
CD 2

 

01. Don't Stop Me Now

02. Spread Your Wings

03. Brighton Rock

04. Bohemian Rhapsody

05. Tie Your Mother Down

06. Sheer Heart Attack

07. We Will Rock You

08. We Are The Champions

09. God Save The Queen





Log:

Exact Audio Copy V1.0 beta 3 from 29. August 2011

EAC extraction logfile from 29. June 2013, 2:00

Queen / Live Killers (CD 2)

Used drive  : TEAC    DV-W524GSB   Adapter: 2  ID: 1

Read mode               : Secure
Utilize accurate stream : Yes
Defeat audio cache      : Yes
Make use of C2 pointers : No

Read offset correction                      : 6
Overread into Lead-In and Lead-Out          : No
Fill up missing offset samples with silence : Yes
Delete leading and trailing silent blocks   : No
Null samples used in CRC calculations       : Yes
Used interface                              : Native Win32 interface for Win NT & 2000

Used output format              : User Defined Encoder
Selected bitrate                : 320 kBit/s
Quality                         : High
Add ID3 tag                     : No
Command line compressor         : C:Program FilesFLACflac.exe
Additional command line options : -V -8 -T "Date=%year%" -T "Genre=%genre%" %source%


TOC of the extracted CD

     Track |   Start  |  Length  | Start sector | End sector 
    ---------------------------------------------------------
        1  |  0:00.33 |  4:28.12 |        33    |    20144   
        2  |  4:28.45 |  5:15.40 |     20145    |    43809   
        3  |  9:44.10 | 12:16.70 |     43810    |    99079   
        4  | 22:01.05 |  6:01.30 |     99080    |   126184   
        5  | 28:02.35 |  3:41.60 |    126185    |   142819   
        6  | 31:44.20 |  3:35.58 |    142820    |   159002   
        7  | 35:20.03 |  2:48.17 |    159003    |   171619   
        8  | 38:08.20 |  3:27.55 |    171620    |   187199   
        9  | 41:36.00 |  1:32.60 |    187200    |   194159   


Range status and errors

Selected range

     Filename D:Queen (Hollywood Records)1979 Live KillersCD 2Queen - Live Killers (CD 2).wav

     Peak level 94.0 %
     Extraction speed 5.5 X
     Range quality 100.0 %
     Test CRC 10895212
     Copy CRC 10895212
     Copy OK

No errors occurred

 
AccurateRip summary
 
Track  1  accurately ripped (confidence 7) A31D0738]  (AR v2)
Track  4  accurately ripped (confidence 7) 7775E172]  (AR v2)
Track  7  accurately ripped (confidence 7) E2D5BDDB]  (AR v2)
 
All tracks accurately ripped

End of status report

==== Log checksum 7CE35625B543FAA50EDAC951C0157E1C62E1C1C677CF49659A0A4F1C7D333899 ====











Queen Discografia 40 Anniversario Flac







Queen Live Killers (1979) Flac (Mg)
10 Puntos Score: 10/10
Visitas: 658 Favoritos: 1
Ver los usuarios que votaron...
2 Comentarios Queen Live Killers (1979) Flac (Mg)
Muy buen disco, se agradece la subida.
@R0BERTIT0
Gracias por pasar y por los puntos  
Para dejar un comentario Registrate! o.. eres ya usuario? Accede!