Doro video collection (Mg)







Fight for Rock

All We Are

Fur Immer

A Whiter Shade of Pale

Unholy Love

Rare Diamond

Fall for Me Again

Bad Blood

Ceremony

Love Me in Black

White Wedding

Fight

Always Live to Win

Chained

Let Love Rain on Me

Warrior Soul

Herzblut

Dancing With An Angel (feat. U.D.O)

Deep In The Night (feat. Kreyson)








Format                           : Matroska
File size                        : 933 MiB
Duration                         : 1h 12mn
Overall bit rate                 : 1 799 Kbps
Writing application              : AVSMatroskaFile
Writing library                  : libebml v0.7.7 + libmatroska v0.8.1

Video
ID                               : 1
Format                           : MPEG-4 Visual
Format profile                   : Advanced [email protected]
Format settings, BVOP            : No
Format settings, QPel            : No
Format settings, GMC             : No warppoints
Format settings, Matrix          : Default (MPEG)
Codec ID                         : XVID
Codec ID/Hint                    : XviD
Duration                         : 1h 12mn
Bit rate                         : 1 571 Kbps
Width                            : 720 pixels
Height                           : 576 pixels
Display aspect ratio             : 5:4
Frame rate                       : 29.970 fps
Standard                         : PAL
Color space                      : YUV
Chroma subsampling               : 4:2:0
Bit depth                        : 8 bits
Scan type                        : Progressive
Compression mode                 : Lossy
Bits/(Pixel*Frame)               : 0.126
Stream size                      : 815 MiB (87%)
Writing library                  : XviD 62

Audio
ID                               : 2
Format                           : MPEG Audio
Format version                   : Version 1
Format profile                   : Layer 3
Codec ID                         : A_MPEG/L3
Codec ID/Hint                    : MP3
Duration                         : 1h 12mn
Bit rate mode                    : Constant
Bit rate                         : 192 Kbps
Channel(s)                       : 2 channels
Sampling rate                    : 44.1 KHz
Compression mode                 : Lossy
Stream size                      : 99.6 MiB (11%)








https://mega.co.nz/#!U0NAwDpI!YjsDND6LSg6JBDPvqoLjhid4vzIivQc5gbdQpueVtMg


Hola


Te invito a pasar a mi humilde y olvidado post de esta fantastica serie Metal Evolution Series sobre origen del metal y sus distintas ramificaciones  SERIE COMPLETA TOTALMENTE SUBTITULADA EN EL MEJOR FORMATO MKV

 







  O esto te pasara 

Doro video collection (Mg)
20 Puntos Score: 10/10
Visitas: 985 Favoritos: 0
Ver los usuarios que votaron...
4 Comentarios Doro video collection (Mg)
confirmado el Rafa esta vivo!!!!!!!!!!!!!!
Impresionante gracias por el post y encima en Mega, abrazo
hola , una consulta, cuando el archivo termina de bajar, a alguien le queda un archivo llamado "doro vc", sin ninguna extensi?
A mi me paso lo mismo y no lo pude descomprimir, una pena.
Para dejar un comentario Registrate! o.. eres ya usuario? Accede!