La Casa de Mickey Mouse [Xvid] Temporada 1 Español






Sinopsis:
La primera serie dedicada a niños en edad preescolar y protagonizada por los personajes más emblemáticos y entrañables de Disney. Mickey, Minnie, Donald, Daisy, Pluto y Goofy vivirán con los más pequeños emocionantes y divertidas aventuras educativas.




General
Complete name                            : /home/desktop/Descargas/subir/La Casa de Mickey Mouse [Xvid]Temporada 1 y 2/1ª Temporada/01-La pastorcita Daisy [MegaHD.se].avi
Format                                   : AVI
Format/Info                              : Audio Video Interleave
File size                                : 172 MiB
Duration                                 : 22mn 54s
Overall bit rate                         : 1 047 Kbps
Writing application                      : VirtualDubMod 1.5.10.1 (build 2366/release)
Writing library                          : VirtualDubMod build 2366/release

Video
ID                                       : 0
Format                                   : MPEG-4 Visual
Format profile                           : Advanced [email protected]
Format settings, BVOP                    : 2
Format settings, QPel                    : No
Format settings, GMC                     : No warppoints
Format settings, Matrix                  : Default (H.263)
Codec ID                                 : XVID
Codec ID/Hint                            : XviD
Duration                                 : 22mn 54s
Bit rate                                 : 909 Kbps
Width                                    : 640 pixels
Height                                   : 480 pixels
Display aspect ratio                     : 4:3
Frame rate                               : 25.000 fps
Color space                              : YUV
Chroma subsampling                       : 4:2:0
Bit depth                                : 8 bits
Scan type                                : Progressive
Compression mode                         : Lossy
Bits/(Pixel*Frame)                       : 0.118
Stream size                              : 149 MiB (87%)
Writing library                          : XviD 1.1.0 (UTC 2005-11-22)

Audio
ID                                       : 1
Format                                   : MPEG Audio
Format version                           : Version 1
Format profile                           : Layer 3
Codec ID                                 : 55
Codec ID/Hint                            : MP3
Duration                                 : 22mn 54s
Bit rate mode                            : Constant
Bit rate                                 : 128 Kbps
Channel(s)                               : 2 channels
Sampling rate                            : 48.0 KHz
Compression mode                         : Lossy
Stream size                              : 21.0 MiB (12%)
Alignment                                : Aligned on interleaves
Interleave, duration                     : 40 ms (1.00 video frame)
Interleave, preload duration             : 504 ms
Writing library                          : LAME3.90.3
















La Casa de Mickey Mouse [Xvid] Temporada 1 Español
10 Puntos Score: 10/10
Visitas: 10270 Favoritos: 7
Ver los usuarios que votaron...
16 Comentarios La Casa de Mickey Mouse [Xvid] Temporada 1 Español
tengo problemas para agregar los links no se agregan
Cita vellanizar: Mostrar
ok, espero que me los mandes
Cita vellanizar: Mostrar
gracias!!! +10!!!
Hola @vellanizar, ?
Excelente mi hija estara feliz con esto, me puedes mandar el link pofa  
bella, estan en espa?
eh yo solo desgargare la imagen de perfil....jaja... apenas mi JD se normalice la descargo...
Podrias conseguirlos en latino ????
@xmaster @djbirote
Gracias por comentar y los puntos    
gracias a mi hija le encantan
hijole que buenisimo aporte vale se agradece
Para dejar un comentario Registrate! o.. eres ya usuario? Accede!