Psicosis 3 Psycho 3 dvdrip latino norman bates


Psycho III o Psicosis III, es una película de terror estadounidense de 1986 dirigida y protagonizada por Anthony Perkins. Es la tercera entrega de la serie Psicosis que comenzó en 1960 con la película de Alfred Hitchcock.
Norman Bates volvió a su trabajo y se enamora de una ex monja que intercambia su amor. Pero de nuevo será impedida por el instinto de dividir su personalidad y para mantener el relleno cadáver de su madre que lo llevó a matar a sus clientes.



Capturas






Format                         : AVI
Format/Info                    : Audio Video Interleave
File size                      : 800 MiB
Duration                       : 1h 32mn
Overall bit rate               : 1 205 Kbps
Writing application            : VirtualDubMod 1.5.4.1 (build 2178/release)
Writing library                : VirtualDubMod build 2178/release

Video
ID                             : 0
Format                         : MPEG-4 Visual
Format profile                 : Advanced [email protected]
Format settings, BVOP          : Yes
Format settings, QPel          : No
Format settings, GMC           : No warppoints
Format settings, Matrix        : Custom
Codec ID                       : XVID
Codec ID/Hint                  : XviD
Duration                       : 1h 32mn
Bit rate                       : 1 070 Kbps
Width                          : 720 pixels
Height                         : 384 pixels
Display aspect ratio           : 1.85:1
Frame rate                     : 23.976 fps
Color space                    : YUV
Chroma subsampling             : 4:2:0
Bit depth                      : 8 bits
Scan type                      : Progressive
Compression mode               : Lossy
Bits/(Pixel*Frame)             : 0.161
Stream size                    : 710 MiB (89%)
Writing library                : XviD 64

Audio
ID                             : 1
Format                         : MPEG Audio
Format version                 : Version 1
Format profile                 : Layer 3
Mode                           : Joint stereo
Mode extension                 : MS Stereo
Codec ID                       : 55
Codec ID/Hint                  : MP3
Duration                       : 1h 32mn
Bit rate mode                  : Constant
Bit rate                       : 128 Kbps
Channel count                  : 2 channels
Sampling rate                  : 48.0 KHz
Compression mode               : Lossy
Stream size                    : 85.0 MiB (11%)
Alignment                      : Aligned on interleaves
Interleave, duration           : 83 ms (2.00 video frames)
Interleave, preload duration   : 504 ms
Writing library                : LAME3.98r
Encoding settings              : -m j -V 4 -q 2 -lowpass 17 -b 128
Language                       : Espanol


Descarga por putlocker



Links zippyshare, nota como remotie los archivos de putlocker a zippyshare estos quedaron con un nombre muy largo asi  PSYCHO III por juanw200.part01.rar.php?id=FBCCD3CE012E3A94&key=WyJSa0pEUTBRelEwVXdNVEpGTTBFNU5Eb3hNemcwTkRFek1UQTJPamhtWmpVd01HRTRORE5sTlRVeU5UQmpaVE0yTnpVNE5EVmxPVGc1WmpReU5EQXhPR1l5TlRJPSIsInJlZyJd,  solo le quitan lo que le sobre para que les quede asi PSYCHO III por juanw200.part01.rar y listo


Zippyshare
[/size]




No te olvides de comentar
Psicosis 3 Psycho 3 dvdrip latino norman bates
10 Puntos Score: 10/10
Visitas: 3069 Favoritos: 1
Ver los usuarios que votaron...
10 Comentarios Psicosis 3 Psycho 3 dvdrip latino norman bates
buen aporte  
TENES LA 2 Y LA 4 EN LATINO? MUY BUEN AP?
GRACIAS!!! ERES EL QUE ME DEJO EL MP EN TARINGA?
@harrison tengo la 2 nada mas en latino pero se calleron los links, la 4 yo la descargue aqui en identi pero en ingles
 si @Lucas16I
@juanw200 Oye amigo no hay una posibilidad de que la subas en 1 solo link en putlocker? pasa que a mi me deja descargar 3 archivos por d?
@Lucas16I amigo si quieres puedo intentar remotear los archivos a zippyshare o billionuploads,lo que pasa es que mi internet se corta a cada rato por eso subo los archivos en partes peque?
@Lucas16I amigo ahi te deje unos links por zippyshare
@juanw200 Gracias por la pagina y por subirlo los archivos a zippyshare
Para dejar un comentario Registrate! o.. eres ya usuario? Accede!