Oops.. Este post tiene los enlaces eliminados!

Identi revisa las denuncias de los usuarios en busca de enlaces eliminados que no dejan descargar los archivos, este mensaje te informa que este post que estas viendo tiene los enlaces eliminados.

Usa el Buscador

Por favor, te recomendamos que uses el buscador para encontrar más alternativas.

AC-DC Highway To Hell (1979) Flac (Mg)

  • Categoría: Reciclaje
  • Publicado hace más de 3 años













Información:


Formato: Flac (image + .cue) + Log

Año: 1979 (remasterizado en 2003)

Covers: En el rar



Lista de canciones:


01. Highway to Hell

02. Girls Got Rhythm

03. Walk All Over You

04. Touch Too Much

05. Beating Around the Bush

06. Shot Down in Flames

07. Get It Hot

08. If You Want Blood (You've Got It)

09. Love Hungry Man

10. Night Prowler





Log:

Exact Audio Copy V1.0 beta 3 from 29. August 2011

EAC extraction logfile from 10. May 2012, 21:03

AC/DC / Highway To Hell (2003, 510764 2)

Used drive  : PIONEER DVD-RW  DVR-219L   Adapter: 1  ID: 0

Read mode               : Secure
Utilize accurate stream : Yes
Defeat audio cache      : Yes
Make use of C2 pointers : No

Read offset correction                      : 6
Overread into Lead-In and Lead-Out          : No
Fill up missing offset samples with silence : Yes
Delete leading and trailing silent blocks   : No
Null samples used in CRC calculations       : Yes
Used interface                              : Native Win32 interface for Win NT & 2000

Used output format : Internal WAV Routines
Sample format      : 44.100 Hz; 16 Bit; Stereo


TOC of the extracted CD

     Track |   Start  |  Length  | Start sector | End sector 
    ---------------------------------------------------------
        1  |  0:00.00 |  3:28.30 |         0    |    15629   
        2  |  3:28.30 |  3:23.22 |     15630    |    30876   
        3  |  6:51.52 |  5:10.00 |     30877    |    54126   
        4  | 12:01.52 |  4:26.20 |     54127    |    74096   
        5  | 16:27.72 |  3:55.55 |     74097    |    91776   
        6  | 20:23.52 |  3:22.65 |     91777    |   106991   
        7  | 23:46.42 |  2:34.38 |    106992    |   118579   
        8  | 26:21.05 |  4:36.42 |    118580    |   139321   
        9  | 30:57.47 |  4:17.13 |    139322    |   158609   
       10  | 35:14.60 |  6:27.72 |    158610    |   187706   


Range status and errors

Selected range

     Filename D:.www.AvaxHome.ruACDC - Highway To Hell (2003, 510764 2).wav

     Peak level 100.0 %
     Extraction speed 6.6 X
     Range quality 100.0 %
     Test CRC 9474890D
     Copy CRC 9474890D
     Copy OK

No errors occurred

 
AccurateRip summary
 
Track  1  accurately ripped (confidence 62)  [A7975BB9]  (AR v2)
Track  2  accurately ripped (confidence 61) 28CB8B75]  (AR v2)
Track  5  accurately ripped (confidence 60) 64387018]  (AR v2)
Track  8  accurately ripped (confidence 59) 4D624791]  (AR v2)
 
All tracks accurately ripped

End of status report

---- CUETools DB Plugin V2.1.3

[CTDB TOCID: PMKdtIoBjpZ5MMt1sQMsOpphWf4-] found, Submit result: PMKdtIoBjpZ5MMt1sQMsOpphWf4- has been confirmed
[226bc8dc] (271/575) Accurately ripped
[74e3e66c] (303/575) No match
[fd2b6ed3] (001/575) No match


==== Log checksum 792124EBE609BC04E0FFB25F319C7BEC6AD7308CC6F00E79A825920F79221643 ====









AC-DC Highway To Hell (1979) Flac (Mg)
10 Puntos Score: 10/10
Visitas: 557 Favoritos: 2
Ver los usuarios que votaron...
7 Comentarios AC-DC Highway To Hell (1979) Flac (Mg)
porque tan pesado el rar?
@tonytensec
Es por el formato del cd
@tonytensec Es pesado porque es en formato FLAC que es un formato sin perdida de calidad, pero si te gusta este disco vale la pena
@ellocoboni GRacias x compartir esta joya.
@R0BERTIT0
Gracias por pasar y por los puntos amigo  
Gracias my Friend...
@BackTrax
Gracias por pasar amigo  
Para dejar un comentario Registrate! o.. eres ya usuario? Accede!