Kansas - Leftoverture (1976)(Flac)(Mg)











Información:


Formato: Flac (image + .cue) + Log

Año: 1976 (remasterizado en 2011)

Covers: En el rar



Lista de canciones:


01. Carry On Wayward Son

02. The Wall

03. What's On My Mind

04. Miracles Out Of Nowhere

05. Opus Insert

06. Questions Of My Childhood

07. Cheyenne Anthem

08. Magnus Opus

09. Carry On Wayward Son (Live)

10. Cheyenne Anthem (Live)

11. Carry On Wayward Son (Single Version)





Log:

Exact Audio Copy V1.0 beta 2 from 29. April 2011

EAC extraction logfile from 21. September 2011, 11:42

Kansas / Leftoverture

Used drive  : HL-DT-STDVDRAM GSA-H60N   Adapter: 2  ID: 0

Read mode               : Secure
Utilize accurate stream : Yes
Defeat audio cache      : Yes
Make use of C2 pointers : No

Read offset correction                      : 667
Overread into Lead-In and Lead-Out          : No
Fill up missing offset samples with silence : Yes
Delete leading and trailing silent blocks   : No
Null samples used in CRC calculations       : Yes
Used interface                              : Native Win32 interface for Win NT & 2000

Used output format : Internal WAV Routines
Sample format      : 44.100 Hz; 16 Bit; Stereo


TOC of the extracted CD

     Track |   Start  |  Length  | Start sector | End sector 
    ---------------------------------------------------------
        1  |  0:00.00 |  5:25.56 |         0    |    24430   
        2  |  5:25.56 |  4:51.19 |     24431    |    46274   
        3  | 10:17.00 |  3:28.55 |     46275    |    61929   
        4  | 13:45.55 |  6:29.05 |     61930    |    91109   
        5  | 20:14.60 |  4:28.61 |     91110    |   111270   
        6  | 24:43.46 |  3:40.67 |    111271    |   127837   
        7  | 28:24.38 |  6:55.04 |    127838    |   158966   
        8  | 35:19.42 |  8:35.52 |    158967    |   197643   
        9  | 43:55.19 |  4:44.70 |    197644    |   219013   
       10  | 48:40.14 |  6:43.72 |    219014    |   249310   
       11  | 55:24.11 |  3:26.53 |    249311    |   264813   


Range status and errors

Selected range

     Filename C:Documents and SettingsAdmin??????? ????Lossless Galaxy Rip by ALLexxessKansas1976 Leftoverture (Epi? - Sony Music Japan Mini LP Blu-spec CD 2011)Kansas - Leftoverture.wav

     Peak level 100.0 %
     Extraction speed 6.0 X
     Range quality 99.9 %
     Test CRC 85F3A525
     Copy CRC 85F3A525
     Copy OK

No errors occurred

 
AccurateRip summary
 
Track  1  not present in database
Track  2  not present in database
Track  3  not present in database
Track  4  not present in database
Track  5  not present in database
Track  6  not present in database
Track  7  not present in database
Track  8  not present in database
Track  9  not present in database
Track 10  not present in database
Track 11  not present in database
 
None of the tracks are present in the AccurateRip database

End of status report

==== Log checksum 20F8FE286000286E540E80FE93D9147BECD40580C945ED2633139DB44FE769A1 ====






Contraseña: ellocoboni




Kansas - Leftoverture (1976)(Flac)(Mg)
10 Puntos Score: 10/10
Visitas: 606 Favoritos: 1
Ver los usuarios que votaron...
6 Comentarios Kansas - Leftoverture (1976)(Flac)(Mg)
Grande muchas gracias.
@karzon
Gracias por pasar  
Gracias ellocoboni, Gracias...
@BackTrax
Gracias por pasar amigo  
Gracias amigo x compartir
@R0BERTIT0
Gracias por pasar y por los puntos  
Para dejar un comentario Registrate! o.. eres ya usuario? Accede!