New girl temporada 2 caps 19 al 25 tvrip latino



New Girl es una serie de televisión estadounidense que se estrenó en Fox el 20 de septiembre de 2011.2 Está protagonizada por Zooey Deschanel, Jake Johnson, Max Greenfield, Lamorne Morris, y Hannah Simone. El 28 de septiembre de 2011, después de dos episodios al aire, Fox ordenó un adicional de 11 episodios del primer orden de 13 episodios, con lo que la primera temporada quedo con 24 episodios


La serie comienza con Jessica "Jess" Day (interpretada por Zooey Deschanel), una mujer peculiar, burbujeante de casi treinta años que da clases en una escuela primaria local de Los Ángeles. Jess comienza a buscar un nuevo lugar para vivir después de encontrar a su novio engañándola. Al ver un anuncio de un nuevo compañero de cuarto en Craigslist, se muda con tres jóvenes: Nick, Schmidt y Coach. Muy poco después de su traslado, Coach se va, y es sustituido por Winston, otro joven que había vivido en el apartamento con Nick y Schmidt


capturas








Format                         : AVI
Format/Info                    : Audio Video Interleave
File size                      : 177 MiB
Duration                       : 21mn 24s
Overall bit rate               : 1 156 Kbps
Writing application            : VirtualDubMod 1.5.4.1 (build 2178/release)
Writing library                : Boilsoft AVI tool build 1/release

Video
ID                             : 0
Format                         : MPEG-4 Visual
Format profile                 : Advanced [email protected]
Format settings, BVOP          : Yes
Format settings, QPel          : No
Format settings, GMC           : No warppoints
Format settings, Matrix        : Custom
Codec ID                       : XVID
Codec ID/Hint                  : XviD
Duration                       : 21mn 24s
Bit rate                       : 1 018 Kbps
Width                          : 640 pixels
Height                         : 480 pixels
Display aspect ratio           : 4:3
Frame rate                     : 23.976 fps
Color space                    : YUV
Chroma subsampling             : 4:2:0
Bit depth                      : 8 bits
Scan type                      : Progressive
Compression mode               : Lossy
Bits/(Pixel*Frame)             : 0.138
Stream size                    : 156 MiB (88%)
Writing library                : XviD 64

Audio
ID                             : 1
Format                         : MPEG Audio
Format version                 : Version 1
Format profile                 : Layer 3
Mode                           : Joint stereo
Mode extension                 : MS Stereo
Codec ID                       : 55
Codec ID/Hint                  : MP3
Duration                       : 21mn 24s
Bit rate mode                  : Constant
Bit rate                       : 128 Kbps
Channel count                  : 2 channels
Sampling rate                  : 48.0 KHz
Compression mode               : Lossy
Stream size                    : 19.6 MiB (11%)
Alignment                      : Aligned on interleaves
Interleave, duration           : 42 ms (1.00 video frame)
Interleave, preload duration   : 504 ms


Nuevos links por mega esta vez van al jd, 25 partes de 50mb capitulos 19 al 25




Mas capitulos aqui

http://www.identi.li/index.php?topic=257525


http://www.identi.li/index.php?topic=252612




CONTRASEÑA     NEW GIRL
New girl temporada 2 caps 19 al 25 tvrip latino
20 Puntos Score: 10/10
Visitas: 2269 Favoritos: 4
Ver los usuarios que votaron...
22 Comentarios New girl temporada 2 caps 19 al 25 tvrip latino
gracias por completarla  
Gracias por completarla lastima que es putlocker
gracias amigo ya la esperaba  tu siempre con tan buenos aportes felicidades y muy bien
Muchas, pero muchas gracias por las dos temporadas
gracias amigo eres lo mas...
Gracias por compartir  
Muchas Gracias por tomarte el trabajo de subir los ultimos episodios y completar esta gran serie
 
nuy buna muchas gracias por compartirrr  
Gracias por subir esta series en "Audio Latino"
Hola, Links caidos los puedes resubir? gracias.
@bbbaez ya estan los links
Que tal juanw200 no quiero que verme muy exigente, por que se que todo este lleva su dedicaci?
@MoskaRulo lo siento amigo,pero ahorita no tengo  tiempo para resubir, solo resubire a mega los capitulos que estan en putlocker cuando los links  esten muertos o tenga tiempo de resubir los capitulos faltantes a mega,dejame ver si te puedo remotear los capitulos que estan en putlocker a zippyshare o a billionuploads
Valoro tu esfuerzo, espero me puedas echar la mano, de igual manera intentare con otra PC e IP, quizas mi bronca radica en la zona (Guadalajara) donde me brindan el servicio de internet ya que eh bajado de Putlocker en otra zona (Zapopan) y me baja de lujo, como sea gracias por el dato y tu tiempo...  
amigo gran trabajo en serio se agradece jjj espero q sigas con la tercera temporada saludos y gracias
gracias por la serie completa
Saludos
Me los llevo para completar la serie.Gracias
Para dejar un comentario Registrate! o.. eres ya usuario? Accede!