Rock Hard Festival 2011 (Bu)








     
Format/Info                              : Audio Video Interleave

Format profile                           : OpenDML

File size                                : 1.45 GiB

Duration                                 : 1h 36mn

Overall bit rate                         : 2 135 Kbps

Writing application                      : Lavf51.12.1


Video

ID                                       : 0

Format                                   : xvid

Codec ID                                 : xvid

Duration                                 : 1h 36mn

Bit rate                                 : 1 801 Kbps

Width                                    : 1 024 pixels

Height                                   : 576 pixels

Display aspect ratio                     : 16:9

Frame rate                               : 25.000 fps

Bits/(Pixel*Frame)                       : 0.122

Stream size                              : 1.22 GiB (84%)


Audio

ID                                       : 1

Format                                   : MPEG Audio

Format version                           : Version 1

Format profile                           : Layer 3

Mode                                     : Joint stereo

Mode extension                           : MS Stereo

Codec ID                                 : 55

Codec ID/Hint                            : MP3

Duration                                 : 1h 36mn

Bit rate mode                            : Constant

Bit rate                                 : 320 Kbps

Channel count                            : 2 channels

Sampling rate                            : 44.1 KHz

Compression mode                         : Lossy

Stream size                              : 222 MiB (15%)

Alignment                                : Aligned on interleaves

Interleave, duration                     : 26 ms (0.65 video frame)

Interleave, preload duration             : 26 ms

Writing library                          : LAME3.97




http://BillionUploads.com/moe5mkjcx6b3




Hola



Te invito a pasar a mi humilde y olvidado post de esta fantastica serie Metal Evolution Series sobre origen del metal y sus distintas ramificaciones  SERIE COMPLETA TOTALMENTE SUBTITULADA EN EL MEJOR FORMATO MKV

 








  O esto te pasara 



Rock Hard Festival 2011 (Bu)
50 Puntos Score: 10/10
Visitas: 1134 Favoritos: 1
Ver los usuarios que votaron...
6 Comentarios Rock Hard Festival 2011 (Bu)
Gracias por compartir   ya no tienes mas post para dar mas puntos  
@vellanizar no importa ahi despues haber que subo
Para dejar un comentario Registrate! o.. eres ya usuario? Accede!