Dio Finding The Sacred Heart Live In Philly 1986








General
Complete name                           
Format                                   : Matroska
Format version                           : Version 1
File size                                : 1 008 MiB
Duration                                 : 1h 40mn
Overall bit rate                         : 1 400 Kbps
Writing application                      : AVSMatroskaFile
Writing library                          : libebml v0.7.7 + libmatroska v0.8.1

Video
ID                                       : 1
Format                                   : AVC
Format/Info                              : Advanced Video Codec
Format profile                           : [email protected]
Format settings, CABAC                   : Yes
Format settings, ReFrames                : 1 frame
Codec ID                                 : V_MPEG4/ISO/AVC
Duration                                 : 1h 40mn
Bit rate                                 : 1 180 Kbps
Width                                    : 720 pixels
Height                                   : 480 pixels
Display aspect ratio                     : 3:2
Frame rate mode                          : Constant
Frame rate                               : 29.970 fps
Standard                                 : NTSC
Color space                              : YUV
Chroma subsampling                       : 4:2:0
Bit depth                                : 8 bits
Scan type                                : Progressive
Bits/(Pixel*Frame)                       : 0.114
Stream size                              : 850 MiB (84%)
Default                                  : Yes
Forced                                   : No

Audio
ID                                       : 2
Format                                   : MPEG Audio
Format version                           : Version 1
Format profile                           : Layer 3
Codec ID                                 : A_MPEG/L3
Codec ID/Hint                            : MP3
Duration                                 : 1h 40mn
Bit rate mode                            : Constant
Bit rate                                 : 192 Kbps
Channel count                            : 2 channels
Sampling rate                            : 44.1 KHz
Compression mode                         : Lossy
Stream size                              : 138 MiB (14%)
Writing library                          : LAMELAME_MAJOR_VERSI
Default                                  : Yes
Forced                                   : No










Hola



Te invito a pasar a mi humilde y olvidado post de esta fantastica serie Metal Evolution Series sobre origen del metal y sus distintas ramificaciones  SERIE COMPLETA TOTALMENTE SUBTITULADA EN EL MEJOR FORMATO MKV


 
























  O esto te pasara 






Dio Finding The Sacred Heart Live In Philly 1986
30 Puntos Score: 10/10
Visitas: 654 Favoritos: 2
Ver los usuarios que votaron...
2 Comentarios Dio Finding The Sacred Heart Live In Philly 1986
Graciass  viejo , buen aporte , lo maximo Dio !!
muy buen concierto amigo muchas gracias, en o personal yo compre el dvd pero es imposible no comentar cuando hay aportes de tan excelente calidad
Para dejar un comentario Registrate! o.. eres ya usuario? Accede!