Oops.. Este post tiene los enlaces eliminados!

Identi revisa las denuncias de los usuarios en busca de enlaces eliminados que no dejan descargar los archivos, este mensaje te informa que este post que estas viendo tiene los enlaces eliminados.

Usa el Buscador

Por favor, te recomendamos que uses el buscador para encontrar más alternativas.

Guns N' Roses Live Era '87-'93 (1999) Flac (Mg)

  • Categoría: Reciclaje
  • Publicado hace más de 3 años











Información:


Formato: Flac (Tracks + .cue) + Log

Año: 1999

Covers: En el rar



Lista de canciones:



CD 1:



01 Nightrain 

02 Mr. Brownstone 

03 It’s So Easy 

04 Welcome to the Jungle 

05 Dust N’ Bones 

06 My Michelle 

07 You’re Crazy 

08 Used to Love Her 

09 Patience 

10 It’s Alright 

11 November Rain 

12 Coma




 
Log:

EAC extraction logfile from 5. September 2007, 22:26 for CD
Guns N' Roses / Live Era '87-'93 (Disc 1)

Used drive  : SONY    DVD-ROM DDU1615   Adapter: 1  ID: 1
Read mode   : Secure with NO C2, accurate stream, disable cache
Read offset correction : 6
Overread into Lead-In and Lead-Out : No

Used output format : Internal WAV Routines
                     44.100 Hz; 16 Bit; Stereo

Other options      : 
    Fill up missing offset samples with silence : Yes
    Delete leading and trailing silent blocks : No
    Installed external ASPI interface


Track  1
     Filename F:Guns N' Roses - Live Era '87-'93 (1999) [FLAC] {2 CD Japan Pressing}Disc 1 of 21 - Nightrain.wav

     Pre-gap length  0:00:02.00

     Peak level 100.0 %
     Track quality 99.9 %
     Test CRC 1349B634
     Copy CRC 1349B634
     Copy OK

Track  2
     Filename F:Guns N' Roses - Live Era '87-'93 (1999) [FLAC] {2 CD Japan Pressing}Disc 1 of 22 - Mr. Brownstone.wav

     Peak level 100.0 %
     Track quality 100.0 %
     Test CRC 5F86C151
     Copy CRC 5F86C151
     Copy OK

Track  3
     Filename F:Guns N' Roses - Live Era '87-'93 (1999) [FLAC] {2 CD Japan Pressing}Disc 1 of 23 - It's So Easy.wav

     Peak level 100.0 %
     Track quality 99.9 %
     Test CRC 3C93492B
     Copy CRC 3C93492B
     Copy OK

Track  4
     Filename F:Guns N' Roses - Live Era '87-'93 (1999) [FLAC] {2 CD Japan Pressing}Disc 1 of 24 - Welcome To The Jungle.wav

     Peak level 100.0 %
     Track quality 100.0 %
     Test CRC 793C0A32
     Copy CRC 793C0A32
     Copy OK

Track  5
     Filename F:Guns N' Roses - Live Era '87-'93 (1999) [FLAC] {2 CD Japan Pressing}Disc 1 of 25 - Dust N' Bones.wav

     Peak level 100.0 %
     Track quality 100.0 %
     Test CRC 20961754
     Copy CRC 20961754
     Copy OK

Track  6
     Filename F:Guns N' Roses - Live Era '87-'93 (1999) [FLAC] {2 CD Japan Pressing}Disc 1 of 26 - My Michelle.wav

     Peak level 100.0 %
     Track quality 100.0 %
     Test CRC E97C830E
     Copy CRC E97C830E
     Copy OK

Track  7
     Filename F:Guns N' Roses - Live Era '87-'93 (1999) [FLAC] {2 CD Japan Pressing}Disc 1 of 27 - You're Crazy.wav

     Peak level 100.0 %
     Track quality 100.0 %
     Test CRC 1A1AFFFE
     Copy CRC 1A1AFFFE
     Copy OK

Track  8
     Filename F:Guns N' Roses - Live Era '87-'93 (1999) [FLAC] {2 CD Japan Pressing}Disc 1 of 28 - Used To Love Her.wav

     Peak level 100.0 %
     Track quality 99.9 %
     Test CRC 7E057EC9
     Copy CRC 7E057EC9
     Copy OK

Track  9
     Filename F:Guns N' Roses - Live Era '87-'93 (1999) [FLAC] {2 CD Japan Pressing}Disc 1 of 29 - Patience.wav

     Peak level 100.0 %
     Track quality 100.0 %
     Test CRC BF588402
     Copy CRC BF588402
     Copy OK

Track 10
     Filename F:Guns N' Roses - Live Era '87-'93 (1999) [FLAC] {2 CD Japan Pressing}Disc 1 of 210 - It's Alright.wav

     Peak level 100.0 %
     Track quality 100.0 %
     Test CRC 67FC5610
     Copy CRC 67FC5610
     Copy OK

Track 11
     Filename F:Guns N' Roses - Live Era '87-'93 (1999) [FLAC] {2 CD Japan Pressing}Disc 1 of 211 - November Rain.wav

     Peak level 100.0 %
     Track quality 100.0 %
     Test CRC 4BD7825F
     Copy CRC 4BD7825F
     Copy OK

Track 12
     Filename F:Guns N' Roses - Live Era '87-'93 (1999) [FLAC] {2 CD Japan Pressing}Disc 1 of 212 - Coma (Japan Bonus Track).wav

     Pre-gap length  0:00:02.65

     Peak level 100.0 %
     Track quality 100.0 %
     Test CRC A16A3FC6
     Copy CRC A16A3FC6
     Copy OK

No errors occured


End of status report




CD 2:


01 Out ta Get Me 

02 Pretty Tied Up 

03 Yesterdays 

04 Move to the City

05 You Could Be Mine 

06 Rocket Queen 

07 Sweet Child O’ Mine 

08 Knockin’ on Heaven’s Door 

09 Don’t Cry 

10 Estranged 

11 Paradise City 





Log:

EAC extraction logfile from 5. September 2007, 22:49 for CD
Guns N' Roses / Live Era '87-'93 (Disc 2)

Used drive  : SONY    DVD-ROM DDU1615   Adapter: 1  ID: 1
Read mode   : Secure with NO C2, accurate stream, disable cache
Read offset correction : 6
Overread into Lead-In and Lead-Out : No

Used output format : Internal WAV Routines
                     44.100 Hz; 16 Bit; Stereo

Other options      : 
    Fill up missing offset samples with silence : Yes
    Delete leading and trailing silent blocks : No
    Installed external ASPI interface


Track  1
     Filename F:Guns N' Roses - Live Era '87-'93 (1999) [FLAC] {2 CD Japan Pressing}Disc 2 of 21 - Out Ta Get Me.wav

     Pre-gap length  0:00:02.00

     Peak level 100.0 %
     Track quality 99.9 %
     Test CRC 58EB334D
     Copy CRC 58EB334D
     Copy OK

Track  2
     Filename F:Guns N' Roses - Live Era '87-'93 (1999) [FLAC] {2 CD Japan Pressing}Disc 2 of 22 - Pretty Tied Up.wav

     Peak level 100.0 %
     Track quality 100.0 %
     Test CRC 2B3AC5AB
     Copy CRC 2B3AC5AB
     Copy OK

Track  3
     Filename F:Guns N' Roses - Live Era '87-'93 (1999) [FLAC] {2 CD Japan Pressing}Disc 2 of 23 - Yesterdays.wav

     Peak level 100.0 %
     Track quality 100.0 %
     Test CRC 74E7B58C
     Copy CRC 74E7B58C
     Copy OK

Track  4
     Filename F:Guns N' Roses - Live Era '87-'93 (1999) [FLAC] {2 CD Japan Pressing}Disc 2 of 24 - Move To The City.wav

     Peak level 100.0 %
     Track quality 100.0 %
     Test CRC 25148A05
     Copy CRC 25148A05
     Copy OK

Track  5
     Filename F:Guns N' Roses - Live Era '87-'93 (1999) [FLAC] {2 CD Japan Pressing}Disc 2 of 25 - You Could Be Mine.wav

     Peak level 100.0 %
     Track quality 99.9 %
     Test CRC CD2998CD
     Copy CRC CD2998CD
     Copy OK

Track  6
     Filename F:Guns N' Roses - Live Era '87-'93 (1999) [FLAC] {2 CD Japan Pressing}Disc 2 of 26 - Rocket Queen.wav

     Peak level 100.0 %
     Track quality 100.0 %
     Test CRC 27F1F5D1
     Copy CRC 27F1F5D1
     Copy OK

Track  7
     Filename F:Guns N' Roses - Live Era '87-'93 (1999) [FLAC] {2 CD Japan Pressing}Disc 2 of 27 - Sweet Child O' Mine.wav

     Peak level 100.0 %
     Track quality 100.0 %
     Test CRC 087D8136
     Copy CRC 087D8136
     Copy OK

Track  8
     Filename F:Guns N' Roses - Live Era '87-'93 (1999) [FLAC] {2 CD Japan Pressing}Disc 2 of 28 - Knockin' On Heaven's Door.wav

     Peak level 100.0 %
     Track quality 100.0 %
     Test CRC A6EA3FFC
     Copy CRC A6EA3FFC
     Copy OK

Track  9
     Filename F:Guns N' Roses - Live Era '87-'93 (1999) [FLAC] {2 CD Japan Pressing}Disc 2 of 29 - Don't Cry.wav

     Peak level 100.0 %
     Track quality 100.0 %
     Test CRC C57150D9
     Copy CRC C57150D9
     Copy OK

Track 10
     Filename F:Guns N' Roses - Live Era '87-'93 (1999) [FLAC] {2 CD Japan Pressing}Disc 2 of 210 - Estranged.wav

     Peak level 100.0 %
     Track quality 100.0 %
     Test CRC 1727AE83
     Copy CRC 1727AE83
     Copy OK

Track 11
     Filename F:Guns N' Roses - Live Era '87-'93 (1999) [FLAC] {2 CD Japan Pressing}Disc 2 of 211 - Paradise City.wav

     Peak level 100.0 %
     Track quality 100.0 %
     Test CRC 554FC57D
     Copy CRC 554FC57D
     Copy OK

No errors occured


End of status report









Guns N' Roses Live Era '87-'93 (1999) Flac (Mg)
20 Puntos Score: 6.7/10
Visitas: 950 Favoritos: 2
Ver los usuarios que votaron...
11 Comentarios Guns N' Roses Live Era '87-'93 (1999) Flac (Mg)
+5 amigo muy bueno    
@javicho270 @enzriv94
Gracias por pasar y por los puntos  

@T_800.
Gracias por pasar amigo  
BIEN !!!! -- Gracias! ---
@Mizuki @BackTrax
Gracias por pasar  amigos
Excelente !! Gracias por subirlo.
@R0BERTIT0
Gracias por pasar y por los puntos  
Para dejar un comentario Registrate! o.. eres ya usuario? Accede!