Manowar Live in Bulgaria Kaliakra Rock Festival 07



MANOWAR

Live in Bulgaria

Kaliakra Rock Festival 2007






Format                           : AVI
Format/Info                      : Audio Video Interleave
File size                        : 699 MiB
Duration                         : 52mn 57s
Overall bit rate                 : 1 845 Kbps
Writing application              : VirtualDubMod 1.5.10.2 (build 2542/release)
Writing library                  : VirtualDubMod build 2542/release

Video
ID                               : 0
Format                           : MPEG-4 Visual
Format profile                   : Advanced [email protected]
Format settings, BVOP            : 1
Format settings, QPel            : No
Format settings, GMC             : No warppoints
Format settings, Matrix          : Default (H.263)
Muxing mode                      : Packed bitstream
Codec ID                         : XVID
Codec ID/Hint                    : XviD
Duration                         : 52mn 57s
Bit rate                         : 1 452 Kbps
Width                            : 656 pixels
Height                           : 352 pixels
Display aspect ratio             : 1.864
Frame rate                       : 25.000 fps
Color space                      : YUV
Chroma subsampling               : 4:2:0
Bit depth                        : 8 bits
Scan type                        : Progressive
Compression mode                 : Lossy
Bits/(Pixel*Frame)               : 0.251
Stream size                      : 550 MiB (79%)
Writing library                  : XviD 1.1.2 (UTC 2006-11-01)

Audio
ID                               : 1
Format                           : AC-3
Format/Info                      : Audio Coding 3
Mode extension                   : CM (complete main)
Codec ID                         : 2000
Duration                         : 52mn 57s
Bit rate mode                    : Constant
Bit rate                         : 384 Kbps
Channel(s)                       : 6 channels
Channel positions                : Front: L C R, Side: L R, LFE
Sampling rate                    : 48.0 KHz
Bit depth                        : 16 bits
Compression mode                 : Lossy
Stream size                      : 145 MiB (21%)
Alignment                        : Split accross interleaves
Interleave, duration             : 40 ms (1.00 video frame)
Interleave, preload duration     : 500 ms









Hola






Te invito a pasar a mi humilde y olvidado post de esta fantastica serie Metal Evolution Series sobre origen del metal y sus distintas ramificaciones  SERIE COMPLETA TOTALMENTE SUBTITULADA EN EL MEJOR FORMATO MKV



 



















  O esto te pasara 



Manowar Live in Bulgaria Kaliakra Rock Festival 07
25 Puntos Score: 8.3/10
Visitas: 1002 Favoritos: 3
Ver los usuarios que votaron...
7 Comentarios Manowar Live in Bulgaria Kaliakra Rock Festival 07
tremendo recital graciasss
Gracias  viejo , buen aporte , tendras de casualidad m?
@T_800. si algunos o mas bien muchos pero casi nadie lo agradece asi que ire lento con las subidas antes posteaba uno diario como por 4 meses
Cita T_800.: Mostrar
mmm comprendo tu malestar , al parecer hay pocos metaleros en Identi , a mi correo llegaban  invitaciones de usuarios  para que les visite sus post ,y creo que esta bien, asi te pasan el dato , tal ves si hicieras lo mismo por Mp , invitar al publico correcto , tendrias m?
@T_800.
Cita T_800.: Mostrar
Ok recomendare tu Post a mis amigos , exitos en tus futuros Post ! y Larga vida al Metal    
podes resubirlo??
Para dejar un comentario Registrate! o.. eres ya usuario? Accede!