|Planeta Océano|Bluray|Hd 1080p|Dual|Mk|Mega|

|Planeta Océano|Bluray|Hd 1080p|Dual|Mk|Mega|



__________________


________________

Qué sea de su agrado

________________








General
Unique ID                                : 201815521119695126914328546804860268268 (0x97D4416AD9A1E8A2AC61EFF570912EEC)
Format                                   : Matroska
Format version                           : Version 2
File size                                : 10.5 GiB
Duration                                 : 1h 33mn
Overall bit rate                         : 16.1 Mbps
Encoded date                             : UTC 2013-05-02 08:20:16
Writing application                      : mkvmerge v4.6.0 ('Still Crazy After All These Years') creado el Mar 10 2011 02:50:32
Writing library                          : libebml v1.2.0 + libmatroska v1.1.0

Video
ID                                       : 1
Format                                   : AVC
Format/Info                              : Advanced Video Codec
Format profile                           : [email protected]
Format settings, CABAC                   : Yes
Format settings, ReFrames                : 4 frames
Codec ID                                 : V_MPEG4/ISO/AVC
Duration                                 : 1h 33mn
Bit rate                                 : 12.8 Mbps
Nominal bit rate                         : 13.8 Mbps
Width                                    : 1 920 pixels
Height                                   : 1 080 pixels
Display aspect ratio                     : 16:9
Frame rate mode                          : Constant
Frame rate                               : 23.976 fps
Original frame rate                      : 25.000 fps
Color space                              : YUV
Chroma subsampling                       : 4:2:0
Bit depth                                : 8 bits
Scan type                                : Progressive
Bits/(Pixel*Frame)                       : 0.258
Stream size                              : 8.36 GiB (80%)
Language                                 : French
Default                                  : Yes
Forced                                   : Yes

Audio #1
ID                                       : 2
Format                                   : DTS
Format/Info                              : Digital Theater Systems
Mode                                     : 16
Format settings, Endianness              : Big
Codec ID                                 : A_DTS
Duration                                 : 1h 33mn
Bit rate mode                            : Constant
Bit rate                                 : 768 Kbps
Channel(s)                               : 6 channels
Channel positions                        : Front: L C R, Side: L R, LFE
Sampling rate                            : 48.0 KHz
Bit depth                                : 24 bits
Compression mode                         : Lossy
Delay relative to video                  : 25s 361ms
Stream size                              : 513 MiB (5%)
Language                                 : Spanish
Default                                  : Yes
Forced                                   : Yes

Audio #2
ID                                       : 3
Format                                   : AC-3
Format/Info                              : Audio Coding 3
Mode extension                           : CM (complete main)
Format settings, Endianness              : Big
Codec ID                                 : A_AC3
Duration                                 : 1h 33mn
Bit rate mode                            : Constant
Bit rate                                 : 640 Kbps
Channel(s)                               : 6 channels
Channel positions                        : Front: L C R, Side: L R, LFE
Sampling rate                            : 48.0 KHz
Bit depth                                : 16 bits
Compression mode                         : Lossy
Delay relative to video                  : 25s 350ms
Stream size                              : 427 MiB (4%)
Language                                 : Spanish
Default                                  : No
Forced                                   : No

Audio #3
ID                                       : 4               
Format                                   : DTS          
Format/Info                              : Digital Theater Systems
Mode                                     : 16            
Format settings, Endianness              : Big
Codec ID                                 : A_DTS
Duration                                 : 1h 33mn
Bit rate mode                            : Constant
Bit rate                                 : 1 510 Kbps
Channel(s)                               : 6 channels
Channel positions                        : Front: L C R, Side: L R, LFE
Sampling rate                            : 48.0 KHz
Bit depth                                : 24 bits
Compression mode                         : Lossy
Delay relative to video                  : 25s 350ms
Stream size                              : 1 008 MiB (9%)
Language                                 : English
Default                                  : No
Forced                                   : No

Text #1                                                            
ID                                       : 5                         
Format                                   : UTF-8                
Codec ID                                 : S_TEXT/UTF8
Codec ID/Info                            : UTF-8 Plain Text
Language                                 : Spanish
Default                                  : No                      
Forced                                   : No                      

 






















GRACIAS POR PASAR, COMENTAR Y/O PUNTEAR QUE SEA DE SU AGRADO RECOMIENDAN EL POST



 : saludos :
|Planeta Océano|Bluray|Hd 1080p|Dual|Mk|Mega|
24 Puntos Score: 6/10
Visitas: 3812 Favoritos: 7
Ver los usuarios que votaron...
14 Comentarios |Planeta Océano|Bluray|Hd 1080p|Dual|Mk|Mega|
Interesante aporte compa  
Saludos
Gracias por este aportazo...
buen aporte  
@sdcaza_B_ Gracias a ti por los puntos Motiva! Simpre ha sido asi (:
@XnelsonX @T_800.  Que los disfruten si sucede un error avisen

SALUDOS A TODOS PACENSE POR MIS APORTES QUIZAS MAS DE UNO LES IMPORTE Y SEA UTIL  
Tremendo aporte , pero recomiendo que protegas los links para que duren m?
@detroid18 Dale!
Lo tomare en cuenta para mis proximos aportes. Gracias  
Y, o valla! Tremendo se?
Perdona davis123, primero muchas gracias por tu subida, y despues, me pide la parte 22 cuando descomprimo. ?
@danivero O valla mi error :/ Espera la Subo ^^
@davis123 , muchas gracias por contestar tan rapido, lastima que no tengo puntos, porque 10 parecen pocos. Ahora a disfrutarlo
Excelentee!! Una pregunta, Es dual Latino-Ingles? o Castellano?.. Saludos!!, ojala mas documentales en HD!!!  
@TR4UL05 Que sea de tu agrado en la descripci?
Muchas gracias por este aporte. Lo guardar?
Hola, me pide pass al descomprimir, cu?
Para dejar un comentario Registrate! o.. eres ya usuario? Accede!