Thor The Dark Word Cam Frances



General
Thor.The.Dark.World.2013.MzEduardx.TRUEFRENCH.MD.CAM.XviD-
Format : AVI
Format/Info : Audio Video Interleave
File size : 735 MiB
Duration : 1h 27mn
Overall bit rate : 1 169 Kbps
Writing application : Lavf52.94.0

Video
ID : 0
Format : xvid
Codec ID : xvid
Duration : 1h 27mn
Bit rate : 1 027 Kbps
Width : 720 pixels
Height : 320 pixels
Display aspect ratio : 2.25:1
Frame rate : 29.970 fps
Bits/(Pixel*Frame) : 0.149
Stream size : 646 MiB (88%)

Audio
ID : 1
Format : MPEG Audio
Format version : Version 1
Format profile : Layer 3
Mode : Joint stereo
Mode extension : MS Stereo
Codec ID : 55
Codec ID/Hint : MP3
Duration : 1h 27mn
Bit rate mode : Constant
Bit rate : 128 Kbps
Channel count : 2 channels
Sampling rate : 48.0 KHz
Compression mode : Lossy
Stream size : 80.5 MiB (11%)
Alignment : Aligned on interleaves
Interleave, duration : 24 ms (0.72 video frame)
Writing library : LAME3.98.4


Caratulas


























                         Links

peliculas - programas
0 Puntos Score: 0/10
Visitas: 1510 Favoritos: 0
6 Comentarios Thor The Dark Word Cam Frances
Se ve horrible, pero igual se agradece; queda esperar nomas  
@Sebas29 nose si la vamos a poder ver en buena calidad este a?
entonces a esperar..... gracias por el esfuerzo....
a esperar entonces
gracias por la intencion  y no os preocupeis que saldra algun video entero
Es mejor ir a verla en cine caray   ya despues que salga en HD la descargan, son peliculas que se disfrutan mejor en cine  
Para dejar un comentario Registrate! o.. eres ya usuario? Accede!
Facebook Identi