Oops.. Este post tiene los enlaces eliminados!

Identi revisa las denuncias de los usuarios en busca de enlaces eliminados que no dejan descargar los archivos, este mensaje te informa que este post que estas viendo tiene los enlaces eliminados.

Usa el Buscador

Por favor, te recomendamos que uses el buscador para encontrar más alternativas.

John Fogerty - Centerfield 25th Anniversary (Flac)

  • Categoría: Reciclaje
  • Publicado hace más de 3 años













Información:


Formato: Flac (image+.cue) + Log

Covers: En el rar

Año: 2010

Servidor: Mega



Lista de canciones:


01. The Old Man Down The Road

02. Rock And Roll Girls

03. Big Train (From Memphis)

04. I Saw It On T.V.

05. Mr. Greed

06. Searchlight

07. Centerfield

08. I Can't Help Myself

09. Vanz Kant Danz

10. My Toot Toot (Bonus Track)

11. I Confess (Bonus Track)





Log:

CUERipper v2.1.4 Copyright (C) 2008-12 Grigory Chudov

EAC extraction logfile from 11. June 2013, 19:49

John Fogerty / Centerfield

Used drive  : TSSTcorp CD/DVDW SH-S182D   Adapter: 1  ID: 0

Read mode               : Secure
Utilize accurate stream : Yes
Defeat audio cache      : Yes
Make use of C2 pointers : No

Read offset correction                      : 6
Overread into Lead-In and Lead-Out          : No
Fill up missing offset samples with silence : Yes
Delete leading and trailing silent blocks   : No
Null samples used in CRC calculations       : Yes
Used interface                              : Native Win32 interface for Win NT & 2000

Used output format : Internal WAV Routines
Sample format      : 44.100 Hz; 16 Bit; Stereo


TOC of the extracted CD

     Track |   Start  |  Length  | Start sector | End sector 
    ---------------------------------------------------------
        1  |  0:00.00 |  3:34.43 |         0    |    16092   
        2  |  3:34.43 |  3:28.37 |     16093    |    31729   
        3  |  7:03.05 |  2:58.22 |     31730    |    45101   
        4  | 10:01.27 |  4:20.59 |     45102    |    64660   
        5  | 14:22.11 |  4:09.33 |     64661    |    83368   
        6  | 18:31.44 |  4:31.36 |     83369    |   103729   
        7  | 23:03.05 |  3:53.62 |    103730    |   121266   
        8  | 26:56.67 |  3:15.67 |    121267    |   135958   
        9  | 30:12.59 |  5:31.54 |    135959    |   160837   
       10  | 35:44.38 |  3:09.62 |    160838    |   175074   
       11  | 38:54.25 |  3:48.50 |    175075    |   192224   


Range status and errors

Selected range

     Filename C:Documents and SettingsErikÐàáî÷èé ñòîëcuetoolsCUETools_2.1.4Fogerty.wav

     Peak level 100.0 %
     Range quality 100.0 %
     Test CRC 387168C4
     Copy CRC 387168C4
     Copy OK

No errors occurred


AccurateRip summary

Track  1  accurately ripped (confidence 27) 16C91D55]
Track  4  accurately ripped (confidence 27) 050D98D2]
Track  7  accurately ripped (confidence 27) 5AB6EBED]
Track 10  accurately ripped (confidence 27)



Contraseña: ellocoboni





John Fogerty - Centerfield 25th Anniversary (Flac)
10 Puntos Score: 10/10
Visitas: 1299 Favoritos: 0
Ver los usuarios que votaron...
3 Comentarios John Fogerty - Centerfield 25th Anniversary (Flac)
Hijoesu!!!
Gracias my friend!!!
Excelente como siempre.
@BackTrax
Gracias por pasar  

@R0BERTIT0
Gracias por pasar y por los puntos  
Para dejar un comentario Registrate! o.. eres ya usuario? Accede!