Oops.. Este post tiene los enlaces eliminados!

Identi revisa las denuncias de los usuarios en busca de enlaces eliminados que no dejan descargar los archivos, este mensaje te informa que este post que estas viendo tiene los enlaces eliminados.

Usa el Buscador

Por favor, te recomendamos que uses el buscador para encontrar más alternativas.

Keane - Strangeland (Deluxe Edition)(2012)(Flac)

  • Categoría: Reciclaje
  • Publicado hace más de 3 años













Información:


Formato: Flac (image + .cue) + Log

Scans: En el rar

Año: 2012

Servidor: Mega



Lista de canciones:


01. You Are Young

02. Silenced By the Night

03. Disconnected

04. Watch How You Go

05. Sovereign Light Cafe

06. On the Road

07. The Starting Line

08. Black Rain

09. Neon River

10. Day Will Come

11. In Your Own Time

12. Sea Fog

13. Strangeland

14. Run With Me

15. The Boys

16. It's Not True 





Log:

Exact Audio Copy V1.0 beta 3 from 29. August 2011

EAC extraction logfile from 3. October 2013, 18:25

Keane / Strangeland (Deluxe Edition)

Used drive  : HL-DT-STDVDRAM GH22NS50   Adapter: 2  ID: 1

Read mode               : Secure
Utilize accurate stream : Yes
Defeat audio cache      : Yes
Make use of C2 pointers : No

Read offset correction                      : 667
Overread into Lead-In and Lead-Out          : No
Fill up missing offset samples with silence : Yes
Delete leading and trailing silent blocks   : No
Null samples used in CRC calculations       : Yes
Used interface                              : Installed external ASPI interface

Used output format : Internal WAV Routines
Sample format      : 44.100 Hz; 16 Bit; Stereo


TOC of the extracted CD

     Track |   Start  |  Length  | Start sector | End sector 
    ---------------------------------------------------------
        1  |  0:00.00 |  3:35.37 |         0    |    16161   
        2  |  3:35.37 |  3:16.35 |     16162    |    30896   
        3  |  6:51.72 |  3:57.67 |     30897    |    48738   
        4  | 10:49.64 |  3:40.29 |     48739    |    65267   
        5  | 14:30.18 |  3:38.63 |     65268    |    81680   
        6  | 18:09.06 |  3:56.55 |     81681    |    99435   
        7  | 22:05.61 |  4:12.25 |     99436    |   118360   
        8  | 26:18.11 |  3:46.42 |    118361    |   135352   
        9  | 30:04.53 |  4:52.71 |    135353    |   157323   
       10  | 34:57.49 |  3:11.68 |    157324    |   171716   
       11  | 38:09.42 |  3:43.60 |    171717    |   188501   
       12  | 41:53.27 |  3:27.07 |    188502    |   204033   
       13  | 45:20.34 |  4:36.38 |    204034    |   224771   
       14  | 49:56.72 |  3:30.57 |    224772    |   240578   
       15  | 53:27.54 |  3:33.25 |    240579    |   256578   
       16  | 57:01.04 |  3:49.65 |    256579    |   273818   


Range status and errors

Selected range

     Filename D:Keane - Strangeland (Deluxe Edition)Keane - Strangeland (Deluxe Edition).wav

     Peak level 99.5 %
     Extraction speed 1.8 X
     Range quality 99.9 %
     Test CRC 8996F201
     Copy CRC 8996F201
     Copy OK

No errors occurred

 
AccurateRip summary
 
Track  1  accurately ripped (confidence 12) D6F32679]  (AR v2)
Track  4  accurately ripped (confidence 11) 9E9FFFC9]  (AR v2)
Track  7  accurately ripped (confidence 11) 44F9EBDB]  (AR v2)
Track 10  accurately ripped (confidence 11) 8EECC18C]  (AR v2)
Track 13  accurately ripped (confidence 11) 1780F000]  (AR v2)
Track 16  accurately ripped (confidence 11)



Contraseña: ellocoboni




Keane - Strangeland (Deluxe Edition)(2012)(Flac)
10 Puntos Score: 10/10
Visitas: 1907 Favoritos: 1
Ver los usuarios que votaron...
6 Comentarios Keane - Strangeland (Deluxe Edition)(2012)(Flac)
excelente gracias buen disco
@crostyth88
Gracias por pasar amigo  
@R0BERTIT0
Gracias por pasar y por los puntos amigo  
Como puedo Descargar este ?
Para dejar un comentario Registrate! o.. eres ya usuario? Accede!