Oops.. Este post tiene los enlaces eliminados!

Identi revisa las denuncias de los usuarios en busca de enlaces eliminados que no dejan descargar los archivos, este mensaje te informa que este post que estas viendo tiene los enlaces eliminados.

Usa el Buscador

Por favor, te recomendamos que uses el buscador para encontrar más alternativas.

Amy Winehouse Lioness: Hidden Treasures Flac (Mg)

  • Categoría: Reciclaje
  • Publicado hace más de 3 años











Información:


Formato: Flac (tracks+.cue) + Log

Covers: En el rar

Año: 2011



Lista de canciones:


01 Our Day Will Come

02 Between The Cheats

03 Tears Dry (Original Version)

04 Will You Still Love Me Tomorrow (2011)

05 Like Smoke (feat. Nas)

06 Valerie (?68 Version)

07 The Girl From Ipanema

08 Half Time

09 Wake Up Alone (Orginal Recording)

10 Best Friends, Right

11 Body And Soul (With Tony Bennett)

12 A Song For You





Log:

Exact Audio Copy V1.0 beta 3 from 29. August 2011

EAC extraction logfile from 5. October 2012, 14:18

Amy Winehouse / Lioness-Hidden Treasures

Used drive  : PLEXTOR DVDR   PX-891SA   Adapter: 0  ID: 4

Read mode               : Secure
Utilize accurate stream : Yes
Defeat audio cache      : Yes
Make use of C2 pointers : No

Read offset correction                      : 6
Overread into Lead-In and Lead-Out          : No
Fill up missing offset samples with silence : Yes
Delete leading and trailing silent blocks   : No
Null samples used in CRC calculations       : Yes
Used interface                              : Native Win32 interface for Win NT & 2000
Gap handling                                : Appended to previous track

Used output format              : User Defined Encoder
Selected bitrate                : 1024 kBit/s
Quality                         : High
Add ID3 tag                     : No
Command line compressor         : C:Program Files (x86)Exact Audio CopyFLACFLAC.EXE
Additional command line options : -0 -V -T "ARTIST=%artist%" -T "TITLE=%title%" -T "ALBUM=%albumtitle%" -T "DATE=%year%" -T "TRACKNUMBER=%tracknr%" -T "TOTALTRACKS=%numtracks%" -T "GENRE=%genre%" -T "COMMENT=Naftamusic Release!" %source%


TOC of the extracted CD

     Track |   Start  |  Length  | Start sector | End sector 
    ---------------------------------------------------------
        1  |  0:00.00 |  2:49.28 |         0    |    12702   
        2  |  2:49.28 |  3:33.44 |     12703    |    28721   
        3  |  6:22.72 |  4:08.07 |     28722    |    47328   
        4  | 10:31.04 |  4:22.61 |     47329    |    67039   
        5  | 14:53.65 |  4:38.00 |     67040    |    87889   
        6  | 19:31.65 |  3:59.68 |     87890    |   105882   
        7  | 23:31.58 |  2:46.72 |    105883    |   118404   
        8  | 26:18.55 |  3:50.64 |    118405    |   135718   
        9  | 30:09.44 |  4:24.20 |    135719    |   155538   
       10  | 34:33.64 |  2:56.22 |    155539    |   168760   
       11  | 37:30.11 |  3:18.61 |    168761    |   183671   
       12  | 40:48.72 |  4:29.28 |    183672    |   203874   


Track  1

     Filename F:Nafta újAmy Winehouse - The album collection (3 CD Box Set2012)[FLAC] - NaftamusicLioness-Hidden Treasures (2011)1 - Our Day Will Come.wav

     Pre-gap length  0:00:02.00

     Peak level 98.9 %
     Extraction speed 3.3 X
     Track quality 100.0 %
     Test CRC 6AD42967
     Copy CRC 6AD42967
     Accurately ripped (confidence 67) 86CB495C]  (AR v2)
     Copy OK

Track  3

     Filename F:Nafta újAmy Winehouse - The album collection (3 CD Box Set2012)[FLAC] - NaftamusicLioness-Hidden Treasures (2011)3 - Tears Dry (Original Version).wav

     Peak level 100.0 %
     Extraction speed 4.2 X
     Track quality 100.0 %
     Test CRC 2B4A7BBD
     Copy CRC 2B4A7BBD
     Accurately ripped (confidence 68) 2A7ECC18]  (AR v2)
     Copy OK

Track  5

     Filename F:Nafta újAmy Winehouse - The album collection (3 CD Box Set2012)[FLAC] - NaftamusicLioness-Hidden Treasures (2011)5 - Like Smoke (feat. Nas).wav

     Peak level 100.0 %
     Extraction speed 5.0 X
     Track quality 100.0 %
     Test CRC AB92748B
     Copy CRC AB92748B
     Accurately ripped (confidence 67) 152245B0]  (AR v2)
     Copy OK

Track  7

     Filename F:Nafta újAmy Winehouse - The album collection (3 CD Box Set2012)[FLAC] - NaftamusicLioness-Hidden Treasures (2011)7 - The Girl From Ipanema.wav

     Peak level 98.9 %
     Extraction speed 3.9 X
     Track quality 99.9 %
     Test CRC 4770F358
     Copy CRC 4770F358
     Accurately ripped (confidence 68) 6305E802]  (AR v2)
     Copy OK

Track  9

     Filename F:Nafta újAmy Winehouse - The album collection (3 CD Box Set2012)[FLAC] - NaftamusicLioness-Hidden Treasures (2011)9 - Wake Up Alone (Orginal Recording).wav

     Peak level 98.9 %
     Extraction speed 4.9 X
     Track quality 99.9 %
     Test CRC EED289FE
     Copy CRC EED289FE
     Accurately ripped (confidence 68) 039B79C4]  (AR v2)
     Copy OK

Track 11

     Filename F:Nafta újAmy Winehouse - The album collection (3 CD Box Set2012)[FLAC] - NaftamusicLioness-Hidden Treasures (2011)11 - Body And Soul (With Tony Bennett).wav

     Peak level 98.9 %
     Extraction speed 6.2 X
     Track quality 100.0 %
     Test CRC 959ED28C
     Copy CRC 959ED28C
     Accurately ripped (confidence 67) F6B88F53]  (AR v2)
     Copy OK


All tracks accurately ripped

No errors occurred

End of status report

==== Log checksum 5E9260799CD5A0190F89BF90EB6623A20A75F676D82014A818F354FEBA37226A ====








Contraseña: ellocoboni





Amy Winehouse Lioness: Hidden Treasures Flac (Mg)
10 Puntos Score: 10/10
Visitas: 884 Favoritos: 1
Ver los usuarios que votaron...
4 Comentarios Amy Winehouse Lioness: Hidden Treasures Flac (Mg)
@Wolframio
Gracias por pasar amigo  
Muy buena calidad, como siempre, Un saludo
@R0BERTIT0
Gracias por pasar amigo y por los puntos , saludos  
Para dejar un comentario Registrate! o.. eres ya usuario? Accede!