John Fogerty - Blue Ridge Rangers Again (Flac)(Mg)












Información:


Formato: Flac (image+.cue) + Log

Covers: En el rar

Año: 2009



Lista de canciones:


01 - Paradise

02 - Never Ending Song Of Love

03 - Garden Party

04 - I Don't Care (Just As Long As You LOve Me)

05 - Back Home Again

06 - I'll Be Ther

07 - Change In The Weather

08 - Moody River

09 - Heaven's Just A Sin Away

10 - Fallin' Fallin' Fallin'

11 - Haunted House

12 - When Will I Be Loved





Log:

Exact Audio Copy V0.99 prebeta 4 from 23. January 2008

Îò÷¸ò EAC îá èçâëå÷åíèè, âûïîëíåííîì 31. àâãóñòà 2009, 21:07

John Fogerty / The Blue Ridge Rangers Rides Again

Äèñêîâîä: PIONEER DVD-RW  DVR-216R   Adapter: 1  ID: 1

Ðåæèì ÷òåíèÿ                 : Äîñòîâåðíîñòü
Èñïîëüçîâàíèå òî÷íîãî ïîòîêà : Äà
Îòêëþ÷åíèå êýøà àóäèî        : Äà
Èñïîëüçîâàíèå óêàçàòåëåé C2  : Íåò

Êîððåêöèÿ ñìåùåíèÿ ïðè ÷òåíèè                     : 96
Ñïîñîáíîñòü ÷èòàòü îáëàñòè Lead-in è Lead-out     : Íåò
Çàïîëíåíèå ïðîïóùåííûõ ñýìïëîâ òèøèíîé            : Äà
Óäàëåíèå áëîêîâ ñ òèøèíîé â íà÷àëå è êîíöå        : Íåò
Ïðè âû÷èñëåíèÿõ CRC èñïîëüçîâàëèñü íóëåâûå ñýìïëû : Äà
Èíòåðôåéñ                                         : Óñòàíîâëåííûé âíåøíèé ASPI-èíòåðôåéñ

Âûõîäíîé ôîðìàò          : Ïîëüçîâàòåëüñêèé êîäèðîâùèê
Âûáðàííûé áèòðåéò        : 1024 kBit/s
Êà÷åñòâî                 : Âûñîêèé
Äîáàâëåíèå ID3-òýãà      : Íåò
Óòèëèòà ñæàòèÿ           : C:Program FilesExact Audio CopyFLACFLAC.EXE
Äîïîëíèòåëüíûå ïàðàìåòðû : -6 -V -T "ARTIST=%a" -T "TITLE=%t" -T "ALBUM=%g" -T "DATE=%y" -T "TRACKNUMBER=%n" -T "GENRE=%m" -T "COMMENT=%e" %s -o %d


TOC èçâëå÷¸ííîãî CD

     Òðåê |   Ñòàðò  | Äëèòåëüíîñòü | Íà÷àëüíûé ñåêòîð | Êîíå÷íûé ñåêòîð 
    ---------------------------------------------------------------------
       1  |  0:00.00 |    3:50.66   |           0      |      17315      
       2  |  3:50.66 |    3:01.22   |       17316      |      30912      
       3  |  6:52.13 |    3:51.30   |       30913      |      48267      
       4  | 10:43.43 |    2:27.14   |       48268      |      59306      
       5  | 13:10.57 |    4:26.30   |       59307      |      79286      
       6  | 17:37.12 |    2:57.32   |       79287      |      92593      
       7  | 20:34.44 |    4:03.17   |       92594      |     110835      
       8  | 24:37.61 |    3:09.41   |      110836      |     125051      
       9  | 27:47.27 |    2:32.69   |      125052      |     136520      
      10  | 30:20.21 |    2:30.17   |      136521      |     147787      
      11  | 32:50.38 |    4:36.07   |      147788      |     168494      
      12  | 37:26.45 |    2:37.27   |      168495      |     180296      


Õàðàêòåðèñòèêè äèàïàçîíà èçâëå÷åíèÿ è ñîîáùåíèÿ îá îøèáêàõ

Âûáðàííûé äèàïàçîí

     Èìÿ ôàéëà I:BitCometJohn Fogerty-The Blue Ridge Rangers Rides AgainJohn Fogerty - The Blue Ridge Rangers Rides Again.wav

     Ïèêîâûé óðîâåíü 100.0 %
     Êà÷åñòâî äèàïàçîíà 100.0 %
     CRC êîïèè C6BC8628
     Êîïèðîâàíèå... OK

Îøèáîê íå ïðîèçîøëî

 
AccurateRip: ñâîäêà
 
Òðåê  1  íåò â áàçå äàííûõ
Òðåê  2  íåò â áàçå äàííûõ
Òðåê  3  íåò â áàçå äàííûõ
Òðåê  4  íåò â áàçå äàííûõ
Òðåê  5  íåò â áàçå äàííûõ
Òðåê  6  íåò â áàçå äàííûõ
Òðåê  7  íåò â áàçå äàííûõ
Òðåê  8  íåò â áàçå äàííûõ
Òðåê  9  íåò â áàçå äàííûõ
Òðåê 10  íåò â áàçå äàííûõ
Òðåê 11  íåò â áàçå äàííûõ
Òðåê 12  íåò â áàçå äàííûõ
 
Íè îäíîãî òðåêà íåò â áàçå AccurateRip

Êîíåö îò÷¸òà








Contraseña: ellocoboni





John Fogerty - Blue Ridge Rangers Again (Flac)(Mg)
10 Puntos Score: 10/10
Visitas: 451 Favoritos: 1
Ver los usuarios que votaron...
4 Comentarios John Fogerty - Blue Ridge Rangers Again (Flac)(Mg)
@BackTrax
Gracias por pasar amigo  
Muy bueno, Gracias.
@R0BERTIT0
Gracias por pasar amigo y por los puntos  
Para dejar un comentario Registrate! o.. eres ya usuario? Accede!